<?xml version="1.0" standalone="no"?>
<!DOCTYPE svg PUBLIC "-//W3C//DTD SVG 1.1//EN" "http://www.w3.org/Graphics/SVG/1.1/DTD/svg11.dtd" >
<svg xmlns="http://www.w3.org/2000/svg">
<metadata>Generated by IcoMoon</metadata>
<defs>
<font id="wpguppy" horiz-adv-x="1024">
<font-face units-per-em="1024" ascent="960" descent="-64" />
<missing-glyph horiz-adv-x="1024" />
<glyph unicode="&#x20;" horiz-adv-x="512" d="" />
<glyph unicode="&#xe900;" glyph-name="activity-01" d="M121.6 634.667c0 111.93 90.737 202.667 202.667 202.667h375.467c111.927 0 202.667-90.737 202.667-202.667v-256c0-111.932-90.735-202.667-202.667-202.667h-375.467c-111.93 0-202.667 90.735-202.667 202.667v256zM324.267 773.333c-76.584 0-138.667-62.083-138.667-138.667v-256c0-76.582 62.083-138.667 138.667-138.667h375.467c76.582 0 138.667 62.084 138.667 138.667v256c0 76.583-62.084 138.667-138.667 138.667h-375.467zM442.018 582.292c-0.064-0.073-0.145-0.177-0.243-0.319l-24.077-34.718c-27.452-39.585-72.565-63.201-120.738-63.201-17.673 0-32 14.327-32 32s14.327 32 32 32c27.19 0 52.652 13.329 68.146 35.671l24.076 34.718c36.080 52.027 117.697 26.496 117.697-36.817v-146.316c0-9.668 11.831-14.349 18.445-7.296l36.817 39.245c42.739 45.559 102.426 71.407 164.898 71.407 17.673 0 32-14.327 32-32s-14.327-32-32-32c-44.787 0-87.578-18.53-118.221-51.196l-36.817-39.245c-46.302-49.357-129.122-16.593-129.122 51.085v146.316c0 0.173-0.009 0.305-0.017 0.401-0.102 0.059-0.239 0.125-0.41 0.178-0.166 0.053-0.32 0.078-0.435 0.086zM181.333 90.667c0 17.673 14.327 32 32 32h597.333c17.673 0 32-14.327 32-32s-14.327-32-32-32h-597.333c-17.673 0-32 14.327-32 32z" />
<glyph unicode="&#xe901;" glyph-name="activity-02" d="M70.4 594.286c0 125.395 101.652 227.048 227.048 227.048h429.106c125.393 0 227.046-101.653 227.046-227.048v-292.573c0-125.393-101.653-227.046-227.046-227.046h-429.106c-125.395 0-227.047 101.653-227.047 227.046v292.573zM297.448 757.333c-90.049 0-163.048-72.999-163.048-163.048v-292.573c0-90.048 72.999-163.046 163.047-163.046h429.106c90.048 0 163.046 72.998 163.046 163.046v292.573c0 90.049-72.998 163.048-163.046 163.048h-429.106zM430.537 538.809c-0.533-0.165-1.434-0.543-2.543-2.14l-27.514-39.679c-30.519-44.011-80.674-70.263-134.23-70.263-17.673 0-32 14.327-32 32s14.327 32 32 32c32.573 0 63.077 15.97 81.638 42.735l27.515 39.678c38.682 55.778 126.182 28.407 126.182-39.471v-167.217c0-15.194 18.594-22.549 28.988-11.469l42.074 44.851c47.983 51.149 114.991 80.166 185.122 80.166 17.673 0 32-14.327 32-32s-14.327-32-32-32c-52.45 0-102.562-21.7-138.445-59.951l-42.074-44.851c-50.082-53.389-139.665-17.95-139.665 55.253v167.217c0 1.943-0.525 2.768-0.866 3.206-0.503 0.642-1.446 1.387-2.825 1.818-1.382 0.432-2.581 0.356-3.358 0.115z" />
<glyph unicode="&#xe902;" glyph-name="airplay" d="M136.533 603.734c0 89.6 72.533 162.133 162.133 162.133h426.667c89.6 0 162.133-72.533 162.133-162.133v-234.667c0-64-51.2-119.467-119.467-119.467-17.067 0-34.133 12.8-34.133 34.133s12.8 34.133 34.133 34.133c29.867 0 51.2 25.6 51.2 51.2v234.667c0 51.2-42.667 93.867-93.867 93.867h-426.667c-51.2 0-93.867-42.667-93.867-93.867v-234.667c0-29.867 25.6-51.2 51.2-51.2 17.067 0 34.133-12.8 34.133-34.133s-17.067-29.867-34.133-29.867c-68.267 0-119.467 51.2-119.467 115.2v234.667zM520.533 364.8c-4.267 4.267-12.8 4.267-17.067 0l-110.933-157.867c-4.267-8.533 0-17.067 8.533-17.067h221.867c8.533 0 12.8 8.533 8.533 17.067l-110.933 157.867zM448 403.2c29.867 42.667 93.867 42.667 123.733 0l110.933-157.867c34.133-51.2 0-115.2-59.733-115.2h-221.867c-59.733 0-93.867 68.267-59.733 115.2l106.667 157.867z" />
<glyph unicode="&#xe903;" glyph-name="alert" d="M181.333 448c0 182.622 148.044 330.667 330.667 330.667s330.667-148.044 330.667-330.667c0-182.622-148.045-330.667-330.667-330.667s-330.667 148.045-330.667 330.667zM512 714.667c-147.276 0-266.667-119.391-266.667-266.667s119.391-266.667 266.667-266.667c147.277 0 266.667 119.39 266.667 266.667s-119.39 266.667-266.667 266.667zM509.743 637.871c17.677 0 32-14.327 32-32v-208.747c0-17.677-14.323-32-32-32-17.673 0-32 14.323-32 32v208.747c0 17.673 14.327 32 32 32zM509.743 311.791c17.677 0 32-14.327 32-32v-0.427c0-17.677-14.323-32-32-32-17.673 0-32 14.323-32 32v0.427c0 17.673 14.327 32 32 32z" />
<glyph unicode="&#xe904;" glyph-name="archive-01" d="M96 741.333c0 41.237 33.429 74.667 74.667 74.667h682.667c41.237 0 74.667-33.429 74.667-74.667v-42.667c0-41.237-33.429-74.667-74.667-74.667h-682.667c-41.237 0-74.667 33.429-74.667 74.667v42.667zM170.667 752c-5.891 0-10.667-4.776-10.667-10.667v-42.667c0-5.891 4.776-10.667 10.667-10.667h682.667c5.892 0 10.667 4.776 10.667 10.667v42.667c0 5.891-4.774 10.667-10.667 10.667h-682.667zM170.667 570.667c17.673 0 32-14.327 32-32v-341.333c0-29.457 23.878-53.333 53.333-53.333h512c29.457 0 53.333 23.876 53.333 53.333v341.333c0 17.673 14.327 32 32 32s32-14.327 32-32v-341.333c0-64.802-52.531-117.333-117.333-117.333h-512c-64.801 0-117.333 52.531-117.333 117.333v341.333c0 17.673 14.327 32 32 32zM336.213 421.333c0 17.673 14.327 32 32 32h287.573c17.673 0 32-14.327 32-32s-14.327-32-32-32h-287.573c-17.673 0-32 14.327-32 32z" />
<glyph unicode="&#xe905;" glyph-name="archive-02" d="M191.375 750.086c29.675 44.512 79.632 71.248 133.128 71.248h374.991c53.5 0 103.454-26.736 133.129-71.248l47.334-71.002c2.496-3.741 4.126-7.889 4.885-12.167 26.342-21.516 43.157-54.253 43.157-90.917v-384c0-64.802-52.531-117.333-117.333-117.333h-597.333c-64.801 0-117.333 52.531-117.333 117.333v384c0 36.664 16.817 69.4 43.157 90.917 0.757 4.278 2.39 8.426 4.884 12.167l47.334 71.002zM230.459 693.333h563.081l-14.165 21.251c-17.805 26.707-47.782 42.749-79.881 42.749h-374.991c-32.098 0-62.072-16.042-79.877-42.749l-14.167-21.251zM213.333 629.333c-29.455 0-53.333-23.878-53.333-53.333v-384c0-29.457 23.878-53.333 53.333-53.333h597.333c29.457 0 53.333 23.876 53.333 53.333v384c0 29.455-23.876 53.333-53.333 53.333h-597.333zM336.208 501.333c0 17.673 14.327 32 32 32h287.574c17.673 0 32-14.327 32-32s-14.327-32-32-32h-287.574c-17.673 0-32 14.327-32 32z" />
<glyph unicode="&#xe906;" glyph-name="atom-01" d="M856.073 231.211c-17.067 76.8-46.933 149.333-89.6 217.6 38.4 64 68.267 132.268 85.333 204.802 21.333 76.8-55.467 149.333-132.267 123.733l-51.2-17.067c-51.2-17.067-102.4-38.4-149.333-64-68.267 42.667-140.801 72.533-221.868 89.6-76.8 21.333-145.067-55.467-119.467-132.267l4.267-12.8c21.333-64 51.2-123.735 85.333-179.202-46.933-68.267-81.067-145.067-98.133-226.133-21.333-76.8 55.467-149.333 132.267-123.733l51.2 17.067c64 21.333 119.468 46.933 174.935 81.067 55.467-38.4 119.467-64 183.467-85.333l12.8-4.267c72.533-34.133 149.333 34.133 132.267 110.933zM689.673 700.546l51.2 17.067c29.867 8.533 55.467-17.067 51.2-46.933-12.8-55.467-34.133-110.933-64-162.135-42.667 55.468-89.6 106.668-149.333 149.335 34.133 17.067 72.533 34.133 110.933 42.667zM241.671 662.146l-4.267 12.8c-8.533 29.867 17.067 55.467 46.933 51.2 64-12.8 119.467-38.4 174.935-68.267-55.468-38.4-106.668-89.6-149.335-140.802-25.6 42.668-51.2 93.868-68.267 145.068zM331.271 184.277l-51.2-17.067c-29.867-8.533-55.467 17.067-51.2 46.933 17.067 68.267 42.667 128 76.8 187.733 46.933-59.733 98.133-115.2 157.868-157.867-42.668-25.6-85.335-42.667-132.268-59.733zM344.071 457.344c46.933 64 106.668 119.468 174.935 162.135 68.267-46.933 123.733-102.402 170.667-170.668-46.933-64-102.4-123.733-166.4-170.667-68.267 51.2-128.001 110.933-179.201 179.2zM740.873 171.477l-12.8 4.267c-51.2 17.067-98.133 38.4-145.067 68.267 55.467 42.667 102.4 89.6 145.067 145.067 29.867-51.2 51.2-110.933 64-170.667 4.267-29.867-21.333-55.467-51.2-46.933z" />
<glyph unicode="&#xe907;" glyph-name="atom-02" d="M885.333 674.134c0 81.067-64 145.067-145.067 145.067s-157.867-17.067-226.133-42.667c-72.533 29.867-149.333 42.667-226.133 42.667-85.333 0-149.333-64-149.333-145.067s17.067-157.867 42.667-226.134c-29.867-72.533-42.667-149.333-42.667-226.133 0-81.067 64-145.067 145.067-145.067s157.867 17.067 226.133 42.667c68.267-29.867 145.067-42.667 226.133-42.667s145.067 64 145.067 145.067c0 81.067-17.067 157.867-42.667 226.133 29.867 68.267 46.933 145.067 46.933 226.134zM283.733 755.2c51.2 0 102.4-8.533 149.333-21.333-85.333-51.2-157.867-123.733-209.067-209.067-12.8 46.934-21.333 98.134-21.333 149.334 0 42.667 38.4 81.067 81.067 81.067zM283.733 136.533c-46.933 0-81.067 38.4-81.067 81.067 0 51.2 8.533 102.4 21.333 149.333 51.2-85.333 123.733-157.867 209.067-209.067-46.933-12.8-98.133-21.333-149.333-21.333zM253.867 443.733c51.2 115.2 145.067 204.8 260.267 260.267 115.2-51.2 204.8-145.067 260.267-260.267-51.2-115.2-145.067-204.8-260.267-260.267-115.2 55.467-209.067 149.333-260.267 260.267zM740.267 136.533c-51.2 0-102.4 8.533-149.333 21.333 85.333 51.2 157.867 123.733 209.067 209.067 12.8-46.933 21.333-98.133 21.333-149.333 0-46.933-38.4-81.067-81.067-81.067zM800 524.8c-51.2 85.334-123.733 157.867-209.067 209.067 46.933 12.8 98.133 21.333 149.333 21.333 42.667 0 81.067-38.4 81.067-81.067 0-51.2-8.533-102.4-21.333-149.334z" />
<glyph unicode="&#xe908;" glyph-name="baby-cart" d="M675.866 256c-17.067 0-34.133-12.8-34.133-34.133 0-17.067 12.8-34.133 34.133-34.133 17.067 0 34.133 12.8 34.133 34.133-4.267 17.067-17.067 34.133-34.133 34.133zM428.399 256c-17.068 0-34.134-12.8-34.134-34.133 0-17.067 12.8-34.133 34.134-34.133s34.133 12.8 34.133 34.133c-4.267 17.067-17.067 34.133-34.133 34.133zM748.399 708.266h-12.8c-76.8 0-140.8-55.467-157.867-128 0 0-4.267 0-8.533 0h-140.8c-55.468 0-110.934 25.6-145.068 72.533l-17.067 21.333c-8.533 12.8-29.867 17.067-42.667 8.533-12.8-12.8-17.067-34.133-4.267-46.933l17.067-21.333c17.067-21.333 34.133-38.4 59.733-55.467v-25.599c0-140.8 115.2-260.267 260.268-260.267 136.533 0 251.733 106.667 256 243.2 0 4.267 0 8.533 0 17.067v115.199c-4.267 34.133-29.867 59.733-64 59.733zM552.132 337.067c-102.4 0-187.734 76.8-196.268 179.2h388.268c-8.533-98.133-89.6-179.2-192-179.2zM739.866 580.266h-98.133c12.8 38.4 46.933 64 89.6 64h8.533v-64z" />
<glyph unicode="&#xe909;" glyph-name="badge-01" d="M514.133 843.971c-162.133 0-290.133-128-290.133-290.133 0-81.066 34.133-153.599 85.333-204.799v-221.867c0-59.733 72.533-98.133 119.467-59.733l51.2 38.4c17.067 12.8 46.933 12.8 64 0l51.2-38.4c46.933-38.4 119.467 0 119.467 59.733v221.867c51.2 51.2 85.333 123.733 85.333 204.799 0 162.133-128 290.133-285.867 290.133zM650.667 127.172c0-8.533-8.533-12.8-17.067-8.533l-51.2 42.667c-42.667 29.867-98.133 29.867-140.8 0l-51.2-42.667c-8.533-4.267-17.067 0-17.067 8.533v174.933c42.667-21.333 89.6-34.133 136.533-34.133s102.4 21.333 140.8 42.667v-183.467zM514.133 331.972c-123.733 0-221.867 98.133-221.867 221.866s98.133 221.867 221.867 221.867c123.733 0 221.867-93.867 221.867-221.867s-98.133-221.866-221.867-221.866zM667.733 553.838c0-17.067-12.8-34.132-34.133-34.132-17.067 0-34.133 12.8-34.133 34.132 0 51.2-42.667 93.867-93.867 93.867-17.067 0-34.133 12.8-34.133 34.133 0 17.067 12.8 34.133 34.133 34.133 93.867-4.267 162.133-72.533 162.133-162.133z" />
<glyph unicode="&#xe90a;" glyph-name="badge-02" d="M778.927 634.372c-17.067 4.267-25.6 25.6-17.067 38.4 38.4 76.8-46.933 162.133-123.733 123.733-17.067-8.533-34.133 0-38.4 17.067-29.867 81.067-145.067 81.067-174.932 0-4.267-12.8-25.6-21.333-38.4-12.8-81.067 34.133-162.134-46.933-128-128 8.533-17.067 0-34.133-17.067-38.4-81.067-29.867-81.067-145.067 0-174.933 17.067-4.267 25.6-25.6 17.067-38.4-25.6-51.2 4.267-106.667 51.2-128v-196.267c0-59.733 72.534-98.133 119.466-59.733l51.2 38.4c17.067 12.8 46.933 12.8 64 0l51.2-38.4c46.933-38.4 119.467 0 119.467 59.733v196.267c46.933 17.067 76.8 72.533 51.2 128-8.533 17.067 0 34.133 17.067 38.4 81.067 29.867 81.067 145.067-4.267 174.933zM650.927 96.772c0-8.533-8.533-12.8-17.067-8.533l-51.2 38.4c-42.667 29.867-98.133 29.867-140.8 0l-51.199-38.4c-8.533-4.267-17.067 0-17.067 8.533v192c4.267 0 8.533 4.267 8.533 4.267 17.067 8.533 34.134 0 38.4-17.067 29.865-81.067 145.065-81.067 174.932 0 4.267 17.067 25.6 25.6 38.4 17.067 4.267 0 17.062-12.8 17.062-12.8v-170.667l0.004-12.8zM757.594 519.172c-51.2-17.067-76.8-76.8-51.2-128 12.8-25.6-12.8-51.2-38.4-38.4-51.2 21.333-110.933 0-128-51.2-8.533-25.6-46.933-25.6-55.467 0-17.067 51.2-76.799 76.8-127.999 51.2-25.6-12.8-51.2 12.8-38.4 38.4 21.333 51.2 0 110.933-51.2 128-25.6 8.533-25.6 46.933 0 55.467 51.2 17.067 76.8 76.8 51.2 128-12.8 25.6 12.8 51.2 38.4 38.4 51.2-21.333 110.932 0 127.999 51.2 8.533 25.6 46.933 25.6 55.467 0 17.067-51.2 76.8-76.8 128-51.2 25.6 12.8 51.2-12.8 38.4-38.4-21.333-51.2 0-110.933 51.2-128 29.867-8.533 29.867-46.933 0-55.467zM514.394 668.506c-68.267 0-119.466-55.467-119.466-119.467s55.466-119.467 119.466-119.467c64 0 119.467 55.467 119.467 119.467s-55.467 119.467-119.467 119.467zM514.394 489.306c-34.133 0-55.467 25.6-55.467 55.467s25.6 55.467 55.467 55.467c29.867 0 55.467-25.6 55.467-55.467s-25.6-55.467-55.467-55.467z" />
<glyph unicode="&#xe90b;" glyph-name="bed-01" d="M881.067 373.867c-4.267 38.4-17.067 72.533-42.667 98.133v217.601c0 64-51.2 119.467-119.467 119.467h-426.667c-64 0-115.2-51.2-115.2-119.467v-217.601c-21.333-29.867-38.4-59.733-42.667-98.133-25.6-12.8-42.667-38.4-42.667-68.267v-42.667c0-42.667 34.133-76.8 76.8-76.8h64l-42.667-42.667c-12.8-12.8-12.8-34.133 0-46.933s34.133-12.8 46.933 0l85.333 85.333h379.734l85.333-85.333c12.8-12.8 34.133-12.8 46.933 0s12.8 34.133 0 46.933l-42.667 42.667h64c42.667 0 76.8 34.133 76.8 76.8v42.667c-8.533 34.133-25.6 59.733-51.2 68.267zM241.066 689.601c0 29.867 25.6 51.2 51.2 51.2h426.667c29.867 0 51.2-25.6 51.2-51.2v-162.134c-29.867 17.068-59.733 25.601-93.867 25.601h-341.334c-34.133 0-68.267-8.533-93.867-25.601v162.134zM339.2 489.067h341.334c64 0 119.467-46.933 136.533-106.667h-614.4c12.8 59.733 68.267 106.667 136.533 106.667zM859.733 262.933c0-4.267-4.267-8.533-8.533-8.533h-682.667c-4.267 0-8.533 4.267-8.533 8.533v42.667c0 4.267 4.267 8.533 8.533 8.533h682.667c4.267 0 8.533-4.267 8.533-8.533v-42.667z" />
<glyph unicode="&#xe90c;" glyph-name="bed-02" d="M881.067 437.867v145.068c0 110.933-89.6 204.8-204.8 204.8h-341.333c-110.933 0-200.533-89.6-200.533-204.8v-145.068c-25.6-12.8-42.667-38.4-42.667-68.267v-85.333c0-42.667 34.133-76.8 76.8-76.8h64l-42.667-42.667c-12.8-12.8-12.8-34.133 0-46.933s34.133-12.8 46.933 0l85.333 85.333h379.733l85.333-85.333c12.8-12.8 34.133-12.8 46.933 0s12.8 34.133 0 46.933l-42.667 42.667h64c42.667 0 76.8 34.133 76.8 76.8v85.333c-8.533 34.133-25.6 55.467-51.2 68.267zM198.4 582.934c0 76.8 64 140.8 140.8 140.8h341.333c72.533 0 136.533-64 136.533-140.8v-136.534h-55.467c0 4.267 0 8.533 0 8.533v85.334c4.267 42.667-29.867 76.8-72.533 76.8h-85.333c-42.667 0-76.8-34.133-76.8-76.8v-85.334c0-4.267 0-8.533 0-8.533h-46.933c0 4.267 0 8.533 0 8.533v85.334c0 42.667-34.133 76.8-76.8 76.8h-85.333c-42.667 0-76.8-34.133-76.8-76.8v-85.334c0-4.267 0-8.533 0-8.533h-42.667v136.534zM697.6 540.268v-85.334c0-4.267-4.267-8.533-8.533-8.533h-85.333c-4.267 0-8.533 4.267-8.533 8.533v85.334c0 4.267 4.267 8.533 8.533 8.533h85.333c4.267 4.267 8.533 0 8.533-8.533zM424.533 540.268v-85.334c0-4.267-4.267-8.533-8.533-8.533h-85.333c-4.267 0-8.533 4.267-8.533 8.533v85.334c0 4.267 4.267 8.533 8.533 8.533h85.333c0 4.267 8.533 0 8.533-8.533zM859.733 284.267c0-4.267-4.267-8.533-8.533-8.533h-682.667c-4.267 0-8.533 4.267-8.533 8.533v85.333c0 4.267 4.267 8.533 8.533 8.533h682.667c4.267 0 8.533-4.267 8.533-8.533v-85.333z" />
<glyph unicode="&#xe90d;" glyph-name="bed-03" d="M159.994 618.667c0 88.366 71.634 160 160 160h384.002c88.367 0 160-71.634 160-160v-194.129c37.99-19.418 64-58.94 64-104.538v-117.333c0.499-3.486 0-7.044 0-10.667v-42.667c0-17.673-14.327-32-32-32s-32 14.327-32 32v42.667c0 5.892-4.774 10.667-10.667 10.667h-682.668c-5.891 0-10.667-4.774-10.667-10.667v-42.667c0-17.673-14.327-32-32-32s-32 14.327-32 32v42.667c0 3.622-0.491 7.181 0.008 10.667l-0.008 117.333c0 45.598 26.009 85.12 64 104.538v194.129zM223.994 437.333h74.667v32c0 53.018 42.981 96 96 96s96.002-42.982 96.002-96v-32h42.667v32c0 53.018 42.982 96 96 96s96-42.982 96-96v-32h74.667v181.333c0 53.019-42.982 96-96 96h-384.002c-53.019 0-96-42.981-96-96v-181.333zM213.327 373.333c-29.455 0-53.333-23.876-53.333-53.333v-53.333h704.002v53.333c0 29.457-23.876 53.333-53.333 53.333h-597.335zM597.329 437.333h64v32c0 17.673-14.327 32-32 32s-32-14.327-32-32v-32zM362.661 437.333h64v32c0 17.673-14.327 32-32 32s-32-14.327-32-32v-32z" />
<glyph unicode="&#xe90e;" glyph-name="bed-04" d="M859.733 426.667v192.002c0 89.6-72.533 162.133-162.133 162.133h-384c-85.333 0-157.867-72.533-157.867-162.133v-192.002c-38.4-21.333-64-59.733-64-106.667v-42.667c0-38.4 29.867-72.533 68.267-72.533-4.267-8.533-4.267-21.333-4.267-34.133v-21.333c0-17.067 12.8-34.133 34.133-34.133s29.867 17.067 29.867 34.133v21.333c0 17.067 12.8 34.133 34.133 34.133h512c17.067 0 34.133-12.8 34.133-34.133v-21.333c0-17.067 12.8-34.133 34.133-34.133s34.133 12.8 34.133 34.133v21.333c0 12.8 0 21.333-4.267 34.133 38.4 0 68.267 34.133 68.267 72.533v42.667c-8.533 46.933-34.133 85.333-72.533 106.667zM219.733 618.669c0 51.2 42.667 93.867 93.867 93.867h384c51.2 0 93.867-42.667 93.867-93.867v-179.202h-132.267c-12.8 72.533-81.067 128.002-157.867 128.002s-140.8-55.469-157.867-128.002h-123.733v179.202zM599.467 439.467h-183.467c12.8 38.4 46.934 64 89.6 64s81.067-25.6 93.867-64zM859.733 277.333c0-4.267-4.267-8.533-8.533-8.533h-682.667c-4.267 0-8.533 4.267-8.533 8.533v42.667c0 29.867 25.6 51.2 51.2 51.2h597.334c29.867 0 51.2-25.6 51.2-51.2v-42.667z" />
<glyph unicode="&#xe90f;" glyph-name="bell" d="M914.803 330.667l-59.733 76.8c-34.133 42.667-55.467 98.133-55.467 157.867v64c0 157.867-128 290.133-290.133 290.133s-285.865-128-285.865-290.133v-72.533c0-55.467-21.333-110.933-55.467-157.867l-59.733-76.8c-38.4-46.933-12.8-115.2 42.667-132.267l76.8-21.333c17.067-4.267 29.867-8.533 46.933-12.8 29.867-102.4 123.733-179.2 234.665-179.2s204.8 76.8 234.667 179.2c17.067 4.267 34.133 8.533 46.933 12.8l76.8 21.333c64 21.333 85.333 89.6 46.933 140.8zM513.737 49.067c-72.533 0-132.265 38.4-162.132 98.133 106.665-17.067 217.599-17.067 324.265 0-29.867-55.467-93.867-98.133-162.133-98.133zM855.070 258.133l-76.8-21.333c-174.933-46.933-358.399-46.933-533.332 0l-76.8 21.333c-12.8 4.267-17.067 21.333-8.533 29.867l59.733 76.8c42.667 55.467 68.267 123.733 68.267 196.267v68.267c0 123.733 98.133 221.867 221.865 221.867s221.867-98.133 221.867-221.867v-72.533c0-72.533 25.6-140.8 68.267-196.267l59.733-76.8c12.8-4.267 8.533-21.333-4.267-25.6zM415.604 569.6c0-76.8-12.8-149.333-42.667-217.6l-4.267-8.533c-8.533-17.067-25.6-25.6-42.667-17.067s-25.6 25.6-17.067 42.667l4.267 8.533c25.6 59.733 38.4 128 38.4 192 0 17.067 12.8 34.133 34.133 34.133 17.067-4.267 29.867-17.067 29.867-34.133z" />
<glyph unicode="&#xe910;" glyph-name="bell-cross" d="M914.803 330.667l-59.733 76.8c-34.133 42.667-55.467 98.133-55.467 157.867v64c0 157.867-128 290.133-290.133 290.133s-285.865-128-285.865-290.133v-72.533c0-55.467-21.333-110.933-55.467-157.867l-59.733-76.8c-38.4-46.933-12.8-115.2 42.667-132.267l76.8-21.333c17.067-4.267 29.867-8.533 46.933-12.8 29.867-102.4 123.733-179.2 234.665-179.2s204.8 76.8 234.667 179.2c17.067 4.267 34.133 8.533 46.933 12.8l76.8 21.333c64 21.333 85.333 89.6 46.933 140.8zM513.737 49.067c-72.533 0-132.265 38.4-162.132 98.133 106.665-17.067 217.599-17.067 324.265 0-29.867-55.467-93.867-98.133-162.133-98.133zM855.070 258.133l-76.8-21.333c-174.933-46.933-358.399-46.933-533.332 0l-76.8 21.333c-12.8 4.267-17.067 21.333-8.533 29.867l59.733 76.8c42.667 55.467 68.267 123.733 68.267 196.267v68.267c0 123.733 98.133 221.867 221.865 221.867s221.867-98.133 221.867-221.867v-72.533c0-72.533 25.6-140.8 68.267-196.267l59.733-76.8c12.8-4.267 8.533-21.333-4.267-25.6zM624.67 433.067c12.8-12.8 12.8-34.133 0-46.933s-34.133-12.8-46.933 0l-64 68.267-64-68.267c-12.8-12.8-34.132-12.8-46.932 0s-12.8 34.133 0 46.933l63.999 68.267-63.999 64c-12.8 12.8-12.8 34.133 0 46.933s34.132 12.8 46.932 0l64-68.267 64 68.267c12.8 12.8 34.133 12.8 46.933 0s12.8-34.133 0-46.933l-64-64 64-68.267z" />
<glyph unicode="&#xe911;" glyph-name="block" d="M512 714.667c-147.276 0-266.667-119.391-266.667-266.667 0-62.106 21.231-119.253 56.832-164.578l374.413 374.413c-45.325 35.601-102.473 56.832-164.578 56.832zM721.835 612.58l-374.415-374.415c45.326-35.601 102.474-56.832 164.58-56.832 147.277 0 266.667 119.39 266.667 266.667 0 62.106-21.231 119.254-56.832 164.58zM181.333 448c0 182.622 148.044 330.667 330.667 330.667s330.667-148.044 330.667-330.667c0-182.622-148.045-330.667-330.667-330.667s-330.667 148.045-330.667 330.667z" />
<glyph unicode="&#xe912;" glyph-name="bookmark-01" d="M96 661.333c0 111.93 90.737 202.667 202.667 202.667h426.667c111.932 0 202.667-90.737 202.667-202.667v-426.667c0-111.932-90.735-202.667-202.667-202.667h-426.667c-111.93 0-202.667 90.735-202.667 202.667v426.667zM266.667 796.289c-61.156-14.446-106.667-69.386-106.667-134.956v-426.667c0-76.582 62.083-138.667 138.667-138.667h426.667c76.582 0 138.667 62.084 138.667 138.667v426.667c0 65.57-45.513 120.51-106.667 134.956v-391.784c0-62.609-72.422-97.417-121.31-58.304l-117.359 93.888c-3.895 3.115-9.434 3.115-13.329 0l-117.358-93.888c-48.889-39.113-121.311-4.305-121.311 58.304v391.784zM330.667 795.733v-391.228c0-8.943 10.346-13.914 17.33-8.329l117.36 93.888c27.268 21.815 66.018 21.815 93.286 0l117.359-93.888c6.985-5.585 17.331-0.614 17.331 8.329v391.228h-362.667z" />
<glyph unicode="&#xe913;" glyph-name="bookmark-02" d="M384 769.229c-76.584 0-138.667-62.083-138.667-138.667v-450.287c0-40.951 44.239-66.624 79.794-46.306l128.658 73.519c36.075 20.612 80.354 20.612 116.429 0l128.657-73.519c35.554-20.318 79.795 5.355 79.795 46.306v450.287c0 76.584-62.084 138.667-138.667 138.667h-256zM181.333 630.563c0 111.93 90.737 202.667 202.667 202.667h256c111.932 0 202.667-90.737 202.667-202.667v-450.287c0-90.095-97.327-146.573-175.548-101.875l-128.657 73.519c-16.397 9.37-36.527 9.37-52.924 0l-128.658-73.519c-78.221-44.698-175.547 11.78-175.547 101.875v450.287zM617.374 507.669c-58.197 58.195-152.55 58.195-210.746 0-12.497-12.497-32.758-12.497-45.255 0s-12.497 32.757 0 45.254c83.188 83.189 218.066 83.189 301.254 0 12.497-12.497 12.497-32.757 0-45.254s-32.755-12.497-45.252 0z" />
<glyph unicode="&#xe914;" glyph-name="branch" d="M352 694.187c0 64.801 52.532 117.333 117.333 117.333h85.333c64.802 0 117.333-52.532 117.333-117.333v-85.333c0-47.030-27.669-87.599-67.618-106.313l118.839-92.429c2.155-1.677 4.036-3.571 5.636-5.632h28.902c64.802 0 117.333-52.531 117.333-117.333v-85.333c0-64.802-52.531-117.333-117.333-117.333h-85.333c-64.802 0-117.333 52.531-117.333 117.333v85.333c0 51.469 33.139 95.198 79.249 111.014l-103.121 80.205c-11.558 8.99-27.738 8.99-39.296 0l-102.861-80.004c46.417-15.642 79.842-59.524 79.842-111.215v-85.333c0-64.802-52.532-117.333-117.333-117.333h-85.333c-64.801 0-117.333 52.531-117.333 117.333v85.333c0 64.802 52.532 117.333 117.333 117.333h28.049c1.602 2.061 3.484 3.955 5.638 5.632l119.16 92.681c-39.663 18.825-67.087 59.239-67.087 106.061v85.333zM469.333 747.52c-29.457 0-53.333-23.878-53.333-53.333v-85.333c0-29.455 23.876-53.333 53.333-53.333h85.333c29.457 0 53.333 23.878 53.333 53.333v85.333c0 29.455-23.876 53.333-53.333 53.333h-85.333zM266.24 340.48c-29.455 0-53.333-23.876-53.333-53.333v-85.333c0-29.457 23.878-53.333 53.333-53.333h85.333c29.455 0 53.333 23.876 53.333 53.333v85.333c0 29.457-23.878 53.333-53.333 53.333h-85.333zM672.427 340.48c-29.457 0-53.333-23.876-53.333-53.333v-85.333c0-29.457 23.876-53.333 53.333-53.333h85.333c29.457 0 53.333 23.876 53.333 53.333v85.333c0 29.457-23.876 53.333-53.333 53.333h-85.333z" />
<glyph unicode="&#xe915;" glyph-name="briefcase" d="M354.133 714.667c12.8 72.533 81.067 128 157.867 128s140.8-55.467 157.867-128h55.467c110.933 0 204.8-89.6 204.8-204.8v-251.733c0-110.933-89.6-204.8-204.8-204.8h-426.667c-110.933 0-204.8 89.6-204.8 204.8v256c0 110.933 89.6 200.533 204.8 200.533h55.467zM418.133 714.667h179.2c-12.8 38.4-46.933 64-89.6 64s-76.8-25.6-89.6-64zM157.867 488.533c0-8.533 0-12.8 0-17.067 0-12.8 4.267-25.6 12.8-38.4s17.067-25.6 34.133-34.133c17.067-8.533 38.4-17.067 72.533-17.067h110.933c12.8 51.2 55.467 89.6 110.933 89.6s98.133-38.4 110.933-89.6h132.267c34.133 0 55.467 8.533 72.533 17.067s25.6 21.333 34.133 34.133c8.533 12.8 12.8 25.6 12.8 38.4 0 4.267 0 8.533 0 12.8v29.867c0 76.8-64 136.533-136.533 136.533h-426.667c-76.8 0-140.8-64-140.8-140.8v-21.333zM277.333 317.867c-42.667 0-76.8 8.533-102.4 25.6-8.533 4.267-12.8 8.533-17.067 12.8v-98.133c0-72.533 59.733-136.533 136.533-136.533h426.667c72.533 0 136.533 59.733 136.533 136.533v98.133c-8.533-4.267-12.8-8.533-17.067-12.8-25.6-17.067-59.733-25.6-102.4-25.6h-136.533c-12.8-42.667-55.467-72.533-102.4-72.533-51.2 0-89.6 29.867-106.667 72.533h-115.2zM499.2 407.467c-25.6 0-46.933-21.333-46.933-46.933s21.333-46.933 46.933-46.933c25.6 0 46.933 21.333 46.933 46.933 0 21.333-21.333 46.933-46.933 46.933z" />
<glyph unicode="&#xe916;" glyph-name="bullhorn" d="M619.622 828.56c6.187 8.144 14.417 14.981 25.417 18.984 29.009 10.558 55.949-6.345 72.905-20.812 19.187-16.366 38.839-40.736 58.031-69.758 38.669-58.477 79.518-142.090 114.086-237.064 34.569-94.976 57.024-185.284 64.99-254.938 3.955-34.569 4.561-65.873 0.384-90.743-3.691-21.982-13.461-52.241-42.47-62.801-10.428-3.797-20.591-4.041-30.118-2.129l-0.038-0.286-244.181 34.867c-1.719-40.439-27.332-77.777-67.733-92.48-53.474-19.465-112.602 8.102-132.066 61.585l-22.819 62.686-115.064 16.435c-3.905-35.132-27.142-66.765-62.608-79.68-49.822-18.129-104.911 7.561-123.045 57.382l-43.779 120.282c-18.133 49.822 7.555 104.909 57.377 123.042 35.357 12.873 73.367 3.669 98.939-20.565l391.794 435.993zM601.161 712.262l-340.907-379.364 27.002-74.185 505.359-72.171c-3.541 4.983-7.070 10.138-10.586 15.458-38.669 58.47-79.518 142.089-114.086 237.065-34.569 94.974-57.020 185.282-64.986 254.934-0.708 6.198-1.31 12.292-1.796 18.262zM889.95 174.665c0.755 2.317 1.604 5.602 2.368 10.167 2.756 16.393 2.799 40.939-0.853 72.87-7.245 63.343-28.169 148.625-61.542 240.316s-72.162 170.473-107.332 223.655c-17.724 26.807-33.536 45.583-46.182 56.369-3.524 3.006-6.281 4.977-8.35 6.268-0.759-2.319-1.604-5.603-2.372-10.17-2.752-16.391-2.795-40.937 0.858-72.867 7.245-63.345 28.169-148.63 61.542-240.319 33.37-91.686 72.162-170.47 107.328-223.654 17.728-26.807 33.54-45.581 46.182-56.367 3.524-3.008 6.285-4.979 8.354-6.268zM191.793 333.867c-6.045 16.61-24.407 25.173-41.015 19.127s-25.17-24.405-19.126-41.015l43.779-120.282c6.045-16.606 24.407-25.169 41.015-19.123s25.17 24.405 19.125 41.015l-43.779 120.277zM487.851 165.419l11.115-30.545c7.377-20.262 29.777-30.707 50.039-23.334 17.446 6.353 27.614 23.838 25.395 41.515l-86.549 12.365z" />
<glyph unicode="&#xe917;" glyph-name="chart-01" d="M179.2 576c0 115.2 89.6 204.8 204.8 204.8h256c110.933 0 204.8-89.6 204.8-204.8v-256c0-110.933-89.6-204.8-204.8-204.8h-256c-110.933 0-204.8 89.6-204.8 204.8v256zM377.694 712.533c-76.8 0-134.494-59.733-134.494-136.533v-256c0-72.533 64-136.533 140.8-136.533h256c76.8 0 136.533 64 136.533 136.533v256c0 76.8-64 136.533-136.533 136.533h-262.306zM354.133 537.6c17.067 0 34.133-12.8 34.133-34.133v-217.6c0-17.067-12.8-29.867-34.133-29.867-17.067 0-34.133 12.8-34.133 29.867v217.6c0 17.067 17.067 34.133 34.133 34.133zM503.467 635.733c17.067 0 34.133-12.8 34.133-29.867v-320c0-17.067-12.8-34.133-34.133-34.133-17.067 0-34.133 12.8-34.133 34.133v320c4.267 17.067 17.067 29.867 34.133 29.867zM652.8 473.6c17.067 0 34.133-12.8 34.133-34.133v-153.6c0-17.067-12.8-29.867-34.133-29.867-17.067 0-34.133 12.8-34.133 29.867v153.6c4.267 17.067 17.067 34.133 34.133 34.133z" />
<glyph unicode="&#xe918;" glyph-name="chart-02" d="M181.333 576c0 111.93 90.737 202.667 202.667 202.667h256c111.932 0 202.667-90.737 202.667-202.667v-256c0-111.932-90.735-202.667-202.667-202.667h-256c-111.93 0-202.667 90.735-202.667 202.667v256zM384 714.667c-76.584 0-138.667-62.083-138.667-138.667v-256c0-76.582 62.083-138.667 138.667-138.667h256c76.582 0 138.667 62.084 138.667 138.667v256c0 76.584-62.084 138.667-138.667 138.667h-256zM708.843 567.125c14.421-10.216 17.83-30.188 7.616-44.608l-47.765-67.426c-40.431-57.071-123.742-60.919-169.254-7.817-18.782 21.909-53.308 19.763-69.227-4.305l-69.869-105.638c-9.75-14.737-29.603-18.786-44.343-9.033-14.74 9.749-18.787 29.602-9.037 44.343l69.871 105.634c39.369 59.52 124.756 64.832 171.198 10.65 18.402-21.474 52.087-19.917 68.437 3.157l47.765 67.428c10.214 14.421 30.191 17.83 44.608 7.613z" />
<glyph unicode="&#xe919;" glyph-name="chart-03" d="M181.333 576c0 111.93 90.737 202.667 202.667 202.667h256c111.932 0 202.667-90.737 202.667-202.667v-256c0-111.932-90.735-202.667-202.667-202.667h-256c-111.93 0-202.667 90.735-202.667 202.667v256zM384 714.667c-76.584 0-138.667-62.083-138.667-138.667v-256c0-76.582 62.083-138.667 138.667-138.667h256c76.582 0 138.667 62.084 138.667 138.667v256c0 76.584-62.084 138.667-138.667 138.667h-256zM539.733 522.667c0 41.237 33.429 74.667 74.667 74.667h32c41.237 0 74.667-33.429 74.667-74.667v-213.333c0-41.237-33.429-74.667-74.667-74.667h-32c-41.237 0-74.667 33.429-74.667 74.667v213.333zM614.4 533.333c-5.892 0-10.667-4.774-10.667-10.667v-213.333c0-5.892 4.774-10.667 10.667-10.667h32c5.892 0 10.667 4.774 10.667 10.667v213.333c0 5.892-4.774 10.667-10.667 10.667h-32zM294.4 384.853c0 41.237 33.429 74.667 74.667 74.667h32c41.237 0 74.667-33.429 74.667-74.667v-75.52c0-41.237-33.429-74.667-74.667-74.667h-32c-41.237 0-74.667 33.429-74.667 74.667v75.52zM369.067 395.52c-5.891 0-10.667-4.774-10.667-10.667v-75.52c0-5.892 4.776-10.667 10.667-10.667h32c5.891 0 10.667 4.774 10.667 10.667v75.52c0 5.892-4.776 10.667-10.667 10.667h-32z" />
<glyph unicode="&#xe91a;" glyph-name="chat" d="M378.36 746.916c-76.8 0-135.16-59.734-135.16-136.534v-452.268c0-8.533 12.8-12.8 17.067-8.533l42.667 42.667c17.067 17.067 34.133 25.6 55.467 25.6h281.6c76.8 0 136.533 64 136.533 136.533v256.001c0 76.8-64 136.534-136.533 136.534h-261.64zM179.2 610.382c0 115.2 89.6 204.8 204.8 204.8h256c110.933 0 204.8-89.6 204.8-204.8v-256.001c0-110.933-89.6-204.8-204.8-204.8h-281.6c-4.267 0-4.267 0-8.533-4.267l-42.667-42.667c-46.933-46.933-128-12.8-128 51.2v456.535zM328.534 537.849c0 17.067 12.8 34.134 34.133 34.134h298.666c17.067 0 29.867-12.8 29.867-34.134 0-17.068-12.8-29.868-34.133-29.868h-298.666c-17.067 0-29.867 12.8-29.867 29.868zM328.534 414.114c0 17.067 12.8 34.133 34.133 34.133h170.666c17.067 0 34.133-12.8 34.133-34.133 0-17.067-12.8-34.133-34.133-34.133h-170.666c-21.333 0-34.133 12.8-34.133 34.133z" />
<glyph unicode="&#xe91b;" glyph-name="chat-delete" d="M379.749 746.916c-76.8 0-136.548-59.734-136.548-136.534v-452.268c0-8.533 12.8-12.8 17.067-8.533l42.667 42.667c17.067 17.067 34.133 25.6 55.467 25.6h281.6c76.8 0 136.533 64 136.533 136.533v256.001c0 76.8-64 136.534-136.533 136.534h-260.251zM179.2 610.382c0 115.2 89.6 204.8 204.8 204.8h256c110.933 0 204.8-89.6 204.8-204.8v-256.001c0-110.933-89.6-204.8-204.8-204.8h-281.6c-4.267 0-4.267 0-8.533-4.267l-42.667-42.667c-46.933-46.933-128-12.8-128 51.2v456.535zM401.067 593.316c12.8 12.8 34.133 12.8 46.933 0l68.267-68.268 68.267 68.268c12.8 12.8 34.133 12.8 46.933 0s12.8-34.134 0-46.934l-68.267-68.268 68.267-68.267c12.8-12.8 12.8-34.133 0-46.933s-34.133-12.8-46.933 0l-68.267 68.267-68.267-68.267c-12.8-12.8-34.133-12.8-46.933 0s-12.8 34.133 0 46.933l68.266 68.267-68.266 68.268c-12.8 12.8-12.8 34.133 0 46.934z" />
<glyph unicode="&#xe91c;" glyph-name="chat-lock" d="M640 813.047h-256c-115.2 0-204.8-89.6-204.8-204.8v-452.266c0-64 81.067-98.133 128-51.2l42.667 42.667c0 0 4.267 4.267 8.533 4.267h281.6c110.933 0 204.8 89.6 204.8 204.8v256c-4.267 110.933-93.867 200.533-204.8 200.533zM776.533 352.247c0-76.8-64-136.533-136.533-136.533h-281.6c-21.333 0-38.4-8.533-51.2-21.333l-42.667-42.667c-8.533-8.533-17.067 0-17.067 8.533v448c-4.267 76.8 59.733 140.8 136.533 140.8h256c72.533 0 136.533-64 136.533-140.8v-256zM601.6 561.314v29.867c0 51.2-42.667 89.6-89.6 89.6-51.2 0-89.6-42.667-89.6-89.6v-25.6c-42.667-4.267-72.533-38.4-72.533-76.8v-128c0-42.667 34.133-76.8 76.8-76.8h170.667c42.667 0 76.8 34.133 76.8 76.8v128c-4.267 38.4-34.133 72.533-72.533 72.533zM482.133 591.18c0 12.8 12.8 25.6 25.6 25.6 17.067 0 25.6-12.8 25.6-25.6v-25.6h-51.2v25.6zM605.867 360.781c0-4.267-4.267-8.533-8.533-8.533h-170.667c-4.266 0-8.533 4.267-8.533 8.533v128c0 4.267 4.267 8.533 8.533 8.533h170.667c4.267 0 8.533-4.267 8.533-8.533v-128z" />
<glyph unicode="&#xe91d;" glyph-name="chat-reply" d="M384 748.573c-76.584 0-138.667-62.083-138.667-138.667v-451.66c0-9.502 11.489-14.263 18.209-7.543l42.667 42.667c14.003 14.003 32.994 21.871 52.797 21.871h280.994c76.582 0 138.667 62.084 138.667 138.667v255.999c0 76.583-62.084 138.667-138.667 138.667h-256zM181.333 609.906c0 111.93 90.737 202.667 202.667 202.667h256c111.932 0 202.667-90.737 202.667-202.667v-255.999c0-111.932-90.735-202.667-202.667-202.667h-280.994c-2.829 0-5.542-1.126-7.542-3.123l-42.667-42.667c-47.037-47.040-127.464-13.726-127.464 52.796v451.66zM581.239 300.041c-6.827 0-13.658 2.517-19.046 7.906l-132.634 132.638c-16.664 16.661-16.664 43.678 0 60.339l132.634 132.635c10.423 10.422 27.674 10.422 38.097 0 10.419-10.422 10.419-27.673 0-38.096l-124.71-124.709 124.71-124.71c10.419-10.423 10.419-27.674 0-38.097-5.393-5.389-12.22-7.906-19.051-7.906z" />
<glyph unicode="&#xe91e;" glyph-name="check" d="M758.054 591.938c11.968-13.005 11.123-33.249-1.882-45.216l-241.284-222.012c-44.924-41.331-114.034-41.314-158.936 0.043l-88.138 81.178c-13 11.977-13.831 32.218-1.858 45.218s32.217 13.833 45.216 1.86l88.138-81.182c20.41-18.799 51.825-18.807 72.245-0.017l241.284 222.009c13.005 11.967 33.25 11.124 45.214-1.881z" />
<glyph unicode="&#xe91f;" glyph-name="code" d="M320.533 650.134c12.8 12.8 34.133 12.8 46.934 0l132.267-132.268c29.867-29.867 29.867-76.8 0-106.667l-132.267-132.267c-12.8-12.8-34.134-12.8-46.934 0s-12.8 34.133 0 46.933l132.267 132.267c4.267 4.267 4.267 12.8 0 17.067l-132.267 128.001c-12.8 12.8-12.8 34.133 0 46.933zM474.133 270.4c0 17.067 12.8 34.133 34.133 34.133h174.933c17.067 0 29.867-12.8 29.867-34.133 0-17.067-12.8-34.133-29.867-34.133h-174.933c-21.333 0-34.133 17.067-34.133 34.133z" />
<glyph unicode="&#xe920;" glyph-name="contact" d="M37.333 661.333c0 111.93 90.737 202.667 202.667 202.667h426.667c95.467 0 175.518-66.011 197.001-154.88h5.666c64.802 0 117.333-52.532 117.333-117.333s-52.531-117.333-117.333-117.333v-52.907c64.802 0 117.333-52.531 117.333-117.333s-52.531-117.333-117.333-117.333h-5.666c-21.483-88.87-101.534-154.88-197.001-154.88h-426.667c-111.93 0-202.667 90.735-202.667 202.667v426.667zM869.333 250.88v106.667c29.457 0 53.333-23.876 53.333-53.333s-23.876-53.333-53.333-53.333zM805.333 661.333c0 76.584-62.084 138.667-138.667 138.667h-426.667c-76.584 0-138.667-62.083-138.667-138.667v-426.667c0-76.582 62.083-138.667 138.667-138.667h426.667c76.582 0 138.667 62.084 138.667 138.667v426.667zM869.333 538.453c29.457 0 53.333 23.878 53.333 53.333s-23.876 53.333-53.333 53.333v-106.667zM453.333 671.573c-28.407 0-51.2-22.793-51.2-51.2 0-10.295 3.235-20.337 8.279-27.903l0.077-0.116c9.292-14.071 25.082-23.181 42.844-23.181 18.031 0 33.634 8.905 42.752 22.614 5.338 8.332 8.448 18.092 8.448 28.586 0 28.407-22.793 51.2-51.2 51.2zM338.133 620.373c0 63.753 51.447 115.2 115.2 115.2s115.2-51.447 115.2-115.2c0-23.577-7.091-45.338-18.765-63.428l-0.183-0.287c-20.762-31.436-56.316-51.485-96.252-51.485-40.239 0-75.631 20.732-96.211 51.855-11.999 18.024-18.989 40.385-18.989 63.345zM372.587 400.555c-22.193 11.819-50.005 7.548-63.88-6.327l-0.165-0.166c-5.337-5.261-10.652-11.098-15.703-17.404-29.554-36.894-15.738-95.753 32.912-121.365 37.090-19.529 81.589-31.078 127.728-31.292 50.688-0.188 95.074 14.302 129.924 33.685 46.861 26.069 59.913 81.417 32.657 116.305-5.478 7.014-11.516 13.739-17.95 20.087l-0.149 0.149c-13.841 13.837-41.276 18.21-64.030 6.246l-0.324-0.171c-23.501-12.011-51.085-19.29-80.273-19.29-29.662 0-56.817 7.305-80.27 19.294l-0.476 0.247zM402.396 457.19c-43.452 22.989-102.449 18.692-138.853-17.621-7.030-6.933-14.006-14.601-20.654-22.903-59.401-74.15-24.203-177.335 53.048-218.005 46.256-24.354 100.89-38.4 157.252-38.66 63.181-0.239 118.298 17.822 161.327 41.758 72.781 40.486 109.009 138.624 51.981 211.631-7.275 9.318-15.147 18.061-23.369 26.176-36.459 36.378-95.040 40.555-138.79 17.66-14.874-7.578-32.461-12.211-51.004-12.211-18.889 0-36.039 4.599-50.938 12.177z" />
<glyph unicode="&#xe921;" glyph-name="copy-01" d="M96 682.667c0 88.366 71.634 160 160 160h288c70.694 0 128-57.308 128-128 0-17.673-14.327-32-32-32s-32 14.327-32 32c0 35.346-28.655 64-64 64h-288c-53.019 0-96-42.981-96-96v-256c0-53.018 42.981-96 96-96h10.667c17.673 0 32-14.327 32-32s-14.327-32-32-32h-10.667c-88.366 0-160 71.633-160 160v256zM352 469.333c0 88.366 71.634 160 160 160h256c88.367 0 160-71.634 160-160v-256c0-88.367-71.633-160-160-160h-256c-88.366 0-160 71.633-160 160v256zM512 565.333c-53.018 0-96-42.982-96-96v-256c0-53.018 42.982-96 96-96h256c53.018 0 96 42.982 96 96v256c0 53.018-42.982 96-96 96h-256z" />
<glyph unicode="&#xe922;" glyph-name="copy-02" d="M96 682.667v-256c0-88.367 71.634-160 160-160h10.667c17.673 0 32 14.327 32 32s-14.327 32-32 32h-10.667c-53.019 0-96 42.982-96 96v256c0 53.019 42.981 96 96 96h288c35.345 0 64-28.654 64-64 0-17.673 14.327-32 32-32s32 14.327 32 32c0 70.692-57.306 128-128 128h-288c-88.366 0-160-71.634-160-160zM352 469.333v-256c0-88.367 71.634-160 160-160h128c159.057 0 288 128.943 288 288v128c0 88.366-71.633 160-160 160h-256c-88.366 0-160-71.634-160-160zM640.013 117.333c20.083 26.739 31.987 59.981 31.987 96 0 53.018 42.982 96 96 96 36.019 0 69.261 11.904 96 31.987-0.004-123.703-100.284-223.983-223.987-223.987zM864 469.333c0-53.018-42.982-96-96-96-88.367 0-160-71.633-160-160 0-53.018-42.982-96-96-96s-96 42.982-96 96v256c0 53.018 42.982 96 96 96h256c53.018 0 96-42.982 96-96z" />
<glyph unicode="&#xe923;" glyph-name="cube" d="M435.703 790.138c48.188 27.371 104.405 27.371 152.593 0l188.74-109.484c48.188-23.461 76.297-74.293 76.297-125.125v-215.058c0-50.833-28.109-101.666-76.297-125.124l-188.74-109.487c-48.188-27.371-104.405-27.371-152.593 0l-192.754 109.487c-44.173 23.458-72.282 70.383-72.282 121.212v218.97c0 50.832 28.11 101.664 76.298 125.125l188.739 109.484zM556.173 739.306c-28.109 15.641-64.252 15.641-92.361 0l-188.738-109.484c-4.016 0-8.032-3.91-12.047-7.82l184.721-105.573c40.158-23.462 92.361-23.462 132.518 0l184.721 105.573c-4.015 3.91-8.030 7.82-12.045 7.82l-196.77 109.484zM793.097 571.17l-184.721-105.574c-20.079-11.729-44.173-19.55-64.252-23.462v-297.169c4.019 0 12.049 3.908 16.064 7.821l192.755 109.483c28.109 15.642 44.173 43.012 44.173 74.291v218.97c-4.019 3.91-4.019 11.73-4.019 15.64zM483.891 148.873v297.173c-24.094 3.908-44.173 11.729-64.252 23.458l-188.737 101.666c0-3.91 0-11.73 0-15.64v-215.058c0-31.283 16.063-58.654 44.173-74.295l192.753-109.483c4.015-3.908 8.030-7.821 16.064-7.821z" />
<glyph unicode="&#xe924;" glyph-name="down" d="M276.041 577.294c12.497 12.497 32.758 12.497 45.255 0l190.705-190.704 190.707 190.704c12.497 12.497 32.755 12.497 45.252 0s12.497-32.758 0-45.254l-213.333-213.333c-12.497-12.497-32.755-12.497-45.252 0l-213.333 213.333c-12.497 12.495-12.497 32.757 0 45.254z" />
<glyph unicode="&#xe925;" glyph-name="download" d="M512 730.453c17.673 0 32-14.327 32-32v-241.694l61.811 62.042c12.471 12.518 32.734 12.557 45.257 0.081 12.518-12.471 12.557-32.734 0.081-45.252l-115.669-116.096c-0.145-0.149-0.294-0.294-0.439-0.435-5.824-6.037-13.995-9.792-23.040-9.792-9.079 0-17.28 3.78-23.104 9.856-0.141 0.137-0.277 0.273-0.418 0.414l-115.627 116.049c-12.474 12.523-12.437 32.785 0.083 45.257 12.52 12.476 32.781 12.437 45.255-0.081l61.811-62.037v241.69c0 17.673 14.327 32 32 32zM213.333 485.547c17.673 0 32-14.327 32-32v-85.333c0-76.582 62.083-138.667 138.667-138.667h256c76.582 0 138.667 62.084 138.667 138.667v85.333c0 17.673 14.327 32 32 32s32-14.327 32-32v-85.333c0-111.932-90.735-202.667-202.667-202.667h-256c-111.93 0-202.667 90.735-202.667 202.667v85.333c0 17.673 14.327 32 32 32z" />
<glyph unicode="&#xe926;" glyph-name="dubble-check-01" d="M800.555 608.95c12.894-12.087 13.547-32.338 1.459-45.231l-205.338-219.027c-43.614-46.528-116.407-49.694-163.904-7.134l-81.648 73.169c-13.162 11.793-14.27 32.026-2.475 45.188 11.794 13.158 32.026 14.268 45.187 2.475l81.649-73.169c21.589-19.345 54.677-17.907 74.5 3.243l205.338 219.027c12.087 12.893 32.337 13.547 45.231 1.46zM629.551 609.253c13.065-11.902 14.007-32.142 2.103-45.206l-113.425-124.503c-11.9-13.065-32.141-14.003-45.205-2.103-13.065 11.904-14.007 32.141-2.103 45.205l113.425 124.503c11.9 13.064 32.141 14.007 45.205 2.104zM221.411 423.386c11.738 13.21 31.964 14.404 45.176 2.667l103.253-91.733c13.212-11.738 14.407-31.962 2.669-45.175-11.738-13.21-31.964-14.409-45.176-2.667l-103.253 91.733c-13.212 11.738-14.407 31.962-2.669 45.175z" />
<glyph unicode="&#xe927;" glyph-name="dubble-check-02" d="M640.051 603.068c12.928-12.048 13.645-32.297 1.596-45.227l-151.957-163.081c1.399-0.969 2.739-2.065 4.002-3.285l41.596-40.141c4.301-4.151 11.174-3.959 15.236 0.431l213.18 230.414c12.002 12.973 32.247 13.759 45.222 1.757 12.971-12.002 13.76-32.248 1.758-45.221l-213.184-230.415c-28.42-30.72-76.54-32.081-106.658-3.021l-41.591 40.141c-1.033 0.998-1.988 2.048-2.859 3.145-48.604-46.669-127.282-42.953-171.128 9.425l-62.994 75.251c-11.345 13.551-9.555 33.732 3.996 45.077s33.734 9.553 45.078-3.998l62.994-75.251c20.583-24.589 58.055-25.583 79.915-2.121l190.572 204.521c12.045 12.93 32.294 13.645 45.227 1.597z" />
<glyph unicode="&#xe928;" glyph-name="edit" d="M814.933 182.933c0-17.067-12.8-34.133-34.133-34.133h-379.734c-17.067 0-34.133 12.8-34.133 34.133 0 17.067 12.8 34.133 34.133 34.133h379.734c17.067-4.267 34.133-17.067 34.133-34.133zM695.467 588.267l-285.867-285.867c-12.8-12.8-29.867-25.6-51.2-29.867l-106.667-29.867c-12.8-4.267-25.6 0-29.867 8.533-12.8 4.267-12.8 17.067-12.8 29.867l29.867 106.667c4.267 17.067 17.067 34.133 29.867 51.2l285.867 285.867c29.867 29.867 76.8 29.867 106.667 0l29.867-29.867c29.867-29.867 29.867-76.8 4.267-106.667zM563.2 549.867l-46.933 46.933-204.8-204.8c-4.267-4.267-8.533-12.8-12.8-21.333l-8.533-51.2 46.933 12.8c8.533 4.267 17.067 8.533 21.333 12.8l204.8 204.8zM648.533 648l-29.867 29.867c-4.267 4.267-12.8 4.267-17.067 0l-38.4-38.4 46.933-46.933 38.4 38.4c4.267 8.533 4.267 12.8 0 17.067z" />
<glyph unicode="&#xe929;" glyph-name="ellipsis-horizontal" d="M599.467 448c0 46.933-38.4 85.333-85.333 85.333s-85.333-38.4-85.333-85.333c0-46.933 38.4-85.333 85.333-85.333s85.333 38.4 85.333 85.333zM309.333 448c0 46.933-38.4 85.333-85.333 85.333s-85.333-38.4-85.333-85.333c0-46.933 38.4-85.333 85.333-85.333s85.333 38.4 85.333 85.333zM885.333 448c0 46.933-38.4 85.333-85.333 85.333s-85.333-38.4-85.333-85.333c0-46.933 38.4-85.333 85.333-85.333s85.333 38.4 85.333 85.333z" />
<glyph unicode="&#xe92a;" glyph-name="ellipsis-stroke-horizontal" d="M800 501.333c-29.457 0-53.333-23.876-53.333-53.333s23.876-53.333 53.333-53.333c29.457 0 53.333 23.876 53.333 53.333s-23.876 53.333-53.333 53.333zM682.667 448c0 64.802 52.531 117.333 117.333 117.333s117.333-52.531 117.333-117.333c0-64.802-52.531-117.333-117.333-117.333s-117.333 52.531-117.333 117.333zM512 501.333c-29.457 0-53.333-23.876-53.333-53.333s23.876-53.333 53.333-53.333c29.457 0 53.333 23.876 53.333 53.333s-23.876 53.333-53.333 53.333zM394.667 448c0 64.802 52.531 117.333 117.333 117.333s117.333-52.531 117.333-117.333c0-64.802-52.531-117.333-117.333-117.333s-117.333 52.531-117.333 117.333zM224 501.333c-29.455 0-53.333-23.876-53.333-53.333s23.878-53.333 53.333-53.333c29.455 0 53.333 23.876 53.333 53.333s-23.878 53.333-53.333 53.333zM106.667 448c0 64.802 52.532 117.333 117.333 117.333s117.333-52.531 117.333-117.333c0-64.802-52.532-117.333-117.333-117.333s-117.333 52.531-117.333 117.333z" />
<glyph unicode="&#xe92b;" glyph-name="ellipsis-stroke-vertical" d="M512 789.333c-29.457 0-53.333-23.878-53.333-53.333s23.876-53.333 53.333-53.333c29.457 0 53.333 23.878 53.333 53.333s-23.876 53.333-53.333 53.333zM394.667 736c0 64.801 52.531 117.333 117.333 117.333s117.333-52.532 117.333-117.333c0-64.801-52.531-117.333-117.333-117.333s-117.333 52.532-117.333 117.333zM512 501.333c-29.457 0-53.333-23.876-53.333-53.333s23.876-53.333 53.333-53.333c29.457 0 53.333 23.876 53.333 53.333s-23.876 53.333-53.333 53.333zM394.667 448c0 64.802 52.531 117.333 117.333 117.333s117.333-52.531 117.333-117.333c0-64.802-52.531-117.333-117.333-117.333s-117.333 52.531-117.333 117.333zM512 213.333c-29.457 0-53.333-23.876-53.333-53.333s23.876-53.333 53.333-53.333c29.457 0 53.333 23.876 53.333 53.333s-23.876 53.333-53.333 53.333zM394.667 160c0 64.802 52.531 117.333 117.333 117.333s117.333-52.531 117.333-117.333c0-64.802-52.531-117.333-117.333-117.333s-117.333 52.531-117.333 117.333z" />
<glyph unicode="&#xe92c;" glyph-name="ellipsis-vertical" d="M512 360.533c46.933 0 85.333 38.4 85.333 85.333s-38.4 85.333-85.333 85.333c-46.933 0-85.333-38.4-85.333-85.333s38.4-85.333 85.333-85.333zM512 650.667c46.933 0 85.333 38.4 85.333 85.333s-38.4 85.333-85.333 85.333c-46.933 0-85.333-38.4-85.333-85.333s38.4-85.333 85.333-85.333zM512 74.667c46.933 0 85.333 38.4 85.333 85.333s-38.4 85.333-85.333 85.333c-46.933 0-85.333-38.4-85.333-85.333s38.4-85.333 85.333-85.333z" />
<glyph unicode="&#xe92d;" glyph-name="email-01" d="M87.254 576c0 111.93 90.737 202.667 202.667 202.667h444.16c111.927 0 202.667-90.737 202.667-202.667v-256c0-111.932-90.735-202.667-202.667-202.667h-444.16c-111.93 0-202.667 90.735-202.667 202.667v256zM289.92 714.667c-76.584 0-138.667-62.083-138.667-138.667v-256c0-76.582 62.083-138.667 138.667-138.667h444.16c76.582 0 138.667 62.084 138.667 138.667v256c0 76.583-62.084 138.667-138.667 138.667h-444.16zM295.88 621.667c12.497 12.497 32.758 12.497 45.255 0l133.302-133.3c20.843-20.843 54.643-20.826 75.465 0.043l132.941 133.233c12.484 12.51 32.742 12.532 45.252 0.049 12.514-12.483 12.535-32.744 0.051-45.255l-132.941-133.233c-45.807-45.909-120.166-45.948-166.025-0.094l-133.3 133.302c-12.497 12.497-12.497 32.758 0 45.255z" />
<glyph unicode="&#xe92e;" glyph-name="email-02" d="M53.333 618.667c0 111.93 90.737 202.667 202.667 202.667h512c111.932 0 202.667-90.737 202.667-202.667v-341.333c0-111.932-90.735-202.667-202.667-202.667h-512c-111.93 0-202.667 90.735-202.667 202.667v341.333zM256 757.333c-76.584 0-138.667-62.083-138.667-138.667v-341.333c0-76.582 62.083-138.667 138.667-138.667h512c76.582 0 138.667 62.084 138.667 138.667v341.333c0 76.584-62.084 138.667-138.667 138.667h-512zM248.743 651.325c11.202 13.67 31.364 15.67 45.033 4.468l182.234-149.343c19.674-16.119 47.991-16.107 67.648 0.030l181.85 149.295c13.658 11.214 33.822 9.232 45.039-4.428 11.213-13.66 9.229-33.824-4.429-45.038l-97.139-79.751 118.195-127.172c12.032-12.945 11.29-33.19-1.655-45.222s-33.195-11.294-45.227 1.655l-120.875 130.052-35.149-28.855c-43.247-35.503-105.545-35.533-148.821-0.068l-33.478 27.435-122.804-128.858c-12.192-12.791-32.448-13.282-45.242-1.088s-13.281 32.448-1.088 45.244l119.494 125.385-99.119 81.226c-13.67 11.202-15.67 31.365-4.468 45.034z" />
<glyph unicode="&#xe92f;" glyph-name="email-read" d="M583.317 798.28c-43.797 26.184-98.436 26.197-142.246 0.034l-222.247-132.72c-11.727-7.003-22.183-15.588-31.16-25.39l241.042-176.123c48.61-35.516 114.581-35.614 163.29-0.239l243.776 177.030c-8.836 9.531-19.081 17.892-30.537 24.742l-221.918 132.666zM867.401 584.744l-237.794-172.686c-71.194-51.699-167.616-51.558-238.657 0.35l-234.595 171.409c-3.345-11.981-5.101-24.506-5.101-37.276v-329.802c0-76.582 62.083-138.667 138.667-138.667h444.16c76.582 0 138.667 62.084 138.667 138.667v329.856c0 13.081-1.843 25.904-5.346 38.149zM408.256 853.262c64.030 38.238 143.889 38.219 207.902-0.049l221.914-132.666c61.205-36.588 98.675-102.647 98.675-173.952v-329.856c0-111.927-90.735-202.667-202.667-202.667h-444.16c-111.93 0-202.667 90.739-202.667 202.667v329.802c0 71.34 37.508 137.425 98.757 174.002l222.246 132.72z" />
<glyph unicode="&#xe930;" glyph-name="exit" d="M767.573 448c0-8.508-3.388-16.666-9.417-22.669l-116.907-116.48c-12.518-12.476-32.781-12.437-45.252 0.081-12.476 12.523-12.437 32.781 0.081 45.257l62.037 61.811h-199.023c-17.673 0-32 14.327-32 32s14.327 32 32 32h199.023l-62.037 61.811c-12.518 12.474-12.557 32.735-0.081 45.255 12.471 12.52 32.734 12.557 45.257 0.083l116.902-116.48c6.029-6.003 9.417-14.161 9.417-22.669zM576.427 746.667c0-17.673-14.327-32-32-32h-85.333c-76.583 0-138.667-62.083-138.667-138.667v-256c0-76.582 62.084-138.667 138.667-138.667h85.333c17.673 0 32-14.327 32-32s-14.327-32-32-32h-85.333c-111.932 0-202.667 90.735-202.667 202.667v256c0 111.93 90.735 202.667 202.667 202.667h85.333c17.673 0 32-14.327 32-32z" />
<glyph unicode="&#xe931;" glyph-name="file-01" d="M780.8 657.069l-153.6 149.333c-42.667 38.4-89.6 59.733-145.067 59.733h-98.133c-115.2 0-204.8-89.6-204.8-204.8v-426.669c0-110.933 89.6-204.8 204.8-204.8h256c110.933 0 204.8 89.6 204.8 204.8v277.333c-4.267 55.469-25.6 106.669-64 145.069zM733.867 614.402c0-4.267 4.267-4.267 0 0 0-4.267-4.267-4.267-8.533-4.267h-85.333c-29.867 0-51.2 25.6-51.2 51.2v85.333c0 4.267 0 8.533 0 8.533l145.067-140.8zM776.533 234.667c0-76.796-64-136.533-136.533-136.533h-256c-76.8 0-136.533 64-136.533 136.533v426.669c-4.267 76.8 59.733 140.8 136.533 140.8h85.333c29.867 0 51.2-25.6 51.2-51.2v-85.333c0-64 51.2-119.467 119.467-119.467h85.333c29.867 0 51.2-25.602 51.2-51.202v-260.267z" />
<glyph unicode="&#xe932;" glyph-name="file-02" d="M753.067 612.265l-247.467 247.467c-25.6 21.333-51.2 34.133-85.333 34.133h-132.267c-89.6 0-162.133-72.533-162.133-162.133v-469.331c0-89.6 72.533-162.133 162.133-162.133h341.333c89.6 0 162.133 72.533 162.133 162.133v264.533c-4.267 34.131-17.067 59.731-38.4 85.331zM488.533 782.931l187.733-187.733h-51.2c-76.8 0-136.533 64-136.533 136.533v51.2zM723.2 262.4c0-51.2-42.667-93.867-93.867-93.867h-341.333c-51.2 0-93.867 42.667-93.867 93.867v469.331c0 51.2 42.667 93.867 93.867 93.867h128c4.267 0 8.533-4.267 8.533-8.533v-85.333c0-110.933 89.6-204.798 204.8-204.798h85.333c4.267 0 8.533-4.267 8.533-8.533v-256zM526.933 313.6c0-17.067-12.8-34.133-34.133-34.133h-217.6c-17.067 0-34.133 12.8-34.133 34.133 0 17.067 12.8 34.133 34.133 34.133h217.6c17.067-4.267 34.133-17.067 34.133-34.133zM654.933 428.8c0-17.067-12.8-34.133-34.133-34.133h-345.6c-17.067 0-34.133 12.8-34.133 34.133 0 17.067 12.8 34.133 34.133 34.133h349.867c17.067 0 29.867-17.067 29.867-34.133zM898.133 462.933v-213.333c0-136.533-110.933-247.467-247.467-247.467h-290.133c-17.067 0-34.133 12.8-34.133 34.133 0 17.067 12.8 29.867 34.133 29.867h294.4c98.133 0 179.2 81.067 179.2 183.467v213.333c0 17.067 12.8 29.867 34.133 29.867 17.067 0 29.867-12.8 29.867-29.867z" />
<glyph unicode="&#xe933;" glyph-name="file-03" d="M371.734 234.667c12.8-12.8 12.8-34.133 0-46.933s-34.133-12.8-46.933 0l-64 64-64-64c-12.8-12.8-34.133-12.8-46.933 0s-12.8 34.133 0 46.933l64 64-64 64c-12.8 12.8-12.8 34.133 0 46.933 17.067 8.533 38.4 8.533 51.2-4.267l64-64 64 64c8.533 12.8 29.867 12.8 42.667 0s12.8-34.133 0-46.933l-64-64 64-59.733zM849.6 712.531h-345.6c-17.067 0-34.133-12.8-34.133-34.133 0-17.067 12.8-34.133 34.133-34.133h345.6c17.067 0 34.133 12.8 34.133 34.133s-12.8 34.133-34.133 34.133zM721.6 597.331h-217.6c-17.067 0-34.133-12.8-34.133-34.133 0-17.067 12.8-34.131 34.133-34.131h217.6c17.067 0 34.133 12.798 34.133 34.131 0 17.067-17.067 34.133-34.133 34.133zM849.6 384h-345.6c-17.067 0-34.133-12.8-34.133-34.133s12.8-34.133 34.133-34.133h345.6c17.067 0 34.133 12.8 34.133 34.133s-12.8 34.133-34.133 34.133zM721.6 264.533h-217.6c-17.067 0-34.133-12.8-34.133-34.133s12.8-34.138 34.133-34.138h217.6c17.067 0 34.133 12.804 34.133 34.138s-17.067 34.133-34.133 34.133zM405.867 708.265c-12.8 12.8-34.133 12.8-46.933 0l-98.133-102.4-55.467 51.2c-12.8 12.8-34.133 12.8-46.933 0s-12.8-34.133 0-46.933l76.8-76.798c12.8-12.8 34.133-12.8 46.933 0l128 123.731c8.533 17.067 8.533 38.4-4.267 51.2z" />
<glyph unicode="&#xe934;" glyph-name="filter-01" d="M221.345 768.515c-54.026 0-73.809-71.097-27.547-99.002l188.213-113.53c60.813-36.683 97.988-102.518 97.988-173.541v-211.354c0-3.311 1.54-6.438 4.164-8.457l42.667-32.798c7.014-5.393 17.169-0.393 17.169 8.457v244.151c0 71.023 37.175 136.858 97.988 173.541l188.211 113.53c46.263 27.905 26.479 99.002-27.546 99.002h-581.309zM160.742 614.711c-101.775 61.391-58.254 217.804 60.603 217.804h581.309c118.857 0 162.377-156.413 60.604-217.803l-188.215-113.528c-41.609-25.101-67.042-70.148-67.042-118.741v-244.151c0-61.935-71.066-96.943-120.171-59.196l-42.667 32.798c-18.389 14.131-29.164 36.006-29.164 59.196v211.354c0 48.593-25.435 93.641-67.044 118.741l-188.213 113.527z" />
<glyph unicode="&#xe935;" glyph-name="filter-02" d="M213.332 791.75c-31.992 0-49.491-24.589-44.759-45.638 26.231-116.686 110.476-211.532 221.001-252.62 48.17-17.907 90.427-62.443 90.427-120.742v-200.806c0-2.308 0.751-4.553 2.133-6.4l42.667-56.887c6.153-8.201 19.2-3.853 19.2 6.4v257.694c0 58.3 42.257 102.835 90.428 120.742 110.524 41.089 194.769 135.934 221.001 252.62 4.732 21.049-12.77 45.638-44.762 45.638h-597.335zM106.131 732.075c-15.941 70.912 44.937 123.675 107.201 123.675h597.335c62.268 0 123.145-52.763 107.204-123.675-31.040-138.074-130.586-250.039-261.141-298.573-29.892-11.11-48.73-35.776-48.73-60.753v-257.694c0-71.757-91.345-102.204-134.4-44.8l-42.667 56.887c-9.695 12.924-14.935 28.646-14.935 44.8v200.806c0 24.977-18.836 49.643-48.727 60.753-130.557 48.533-230.103 160.499-261.141 298.573z" />
<glyph unicode="&#xe936;" glyph-name="flag-01" d="M282.667 849.922c0 17.673-14.327 32-32 32s-32-14.327-32-32v-803.842c0-17.673 14.327-32 32-32s32 14.327 32 32v304.674h86.893c19.006 0 36.151-11.413 43.48-28.949 14.821-35.465 49.492-58.551 87.93-58.551h187.029c64.802 0 117.333 52.531 117.333 117.333v236.111c0 51.024-41.361 92.387-92.386 92.387h-47.842c-19.004 0-36.151 11.417-43.477 28.953-14.822 35.462-49.493 58.55-87.932 58.55h-251.029v53.333zM293.333 414.754v317.834h240.363c12.625 0 24.013-7.583 28.881-19.23 17.28-41.351 57.711-68.273 102.528-68.273h47.842c15.676 0 28.386-12.71 28.386-28.387v-236.111c0-29.457-23.876-53.333-53.333-53.333h-187.029c-12.625 0-24.013 7.582-28.881 19.23-17.28 41.353-57.713 68.271-102.53 68.271h-76.227z" />
<glyph unicode="&#xe937;" glyph-name="flag-02" d="M234.078 817.922c17.673 0 32-14.327 32-32v-675.842c0-17.673-14.327-32-32-32s-32 14.327-32 32v675.842c0 17.673 14.327 32 32 32zM577.071 717.157c-39.561-15.168-70.997-24.007-101.026-26.532-30.575-2.571-57.587 1.577-87.857 9.349-9.007 2.312-15.443-4.276-15.443-10.566v-331.554c0-4.693 2.788-7.949 5.746-9.003 33.559-11.93 59.866-17.493 85.449-16.687 25.361 0.798 52.57 7.945 87.505 25.412 0.99 0.495 2.001 0.939 3.034 1.327 61.641 23.206 107.563 31.019 152.815 27.311 7.953-0.649 15.556 3.093 19.942 8.678 3.968 5.060 3.951 9.306 1.788 13.167l-52.557 93.837c-12.727 22.733-12.693 50.452 0.098 73.147l80.017 141.995c1.685 2.996 1.771 6.285 0.691 9.033-1.033 2.622-2.876 4.269-5.376 4.945-27.93 7.54-51.358 11.135-77.175 9.685-26.061-1.463-56.367-8.173-97.651-23.543zM671.13 804.599c34.816 1.955 65.404-3.145 97.451-11.797 47.629-12.859 66.458-66.902 43.759-107.185l-80.021-141.995c-1.826-3.242-1.83-7.202-0.013-10.448l52.557-93.841c16.785-29.965 9.958-61.99-7.283-83.955-16.823-21.431-44.821-35.465-75.511-32.951-32.653 2.675-68.446-2.27-123.533-22.857-40.171-19.895-76.062-30.229-112.58-31.377-36.757-1.156-71.58 7.087-108.904 20.356-29.919 10.637-48.305 39.1-48.305 69.303v331.554c0 51.077 48.799 84.509 95.358 72.556 26.391-6.776 45.736-9.316 66.579-7.564 21.35 1.795 46.345 8.271 83.614 22.568l0.286 0.111c45.094 16.8 82.005 25.581 116.548 27.521z" />
<glyph unicode="&#xe938;" glyph-name="gift-01" d="M701.756 717.551c2.906 38.194-46.097 66.403-77.773 34.728l-34.726-34.728h112.499zM766.323 717.551c3.627 90.13-112.299 155.277-187.593 79.983l-66.731-66.73-60.932 60.934c-73.117 73.115-187.898 15.255-189.99-74.187h-47.744c-41.237 0-74.667-33.429-74.667-74.667v-32c0-29.786 17.44-55.498 42.667-67.481v-317.798c0-88.367 71.634-160 160-160h80.102v-0.111l261.231 0.111c88.367 0 160 71.633 160 160v317.798c25.225 11.983 42.667 37.696 42.667 67.481v32c0 41.237-33.429 74.667-74.667 74.667h-44.343zM434.743 717.551h-109.216c2.878 36.434 50.016 59.2 80.283 28.932l28.933-28.932zM276.49 653.551h-63.156c-5.891 0-10.667-4.776-10.667-10.667v-32c0-5.891 4.776-10.667 10.667-10.667h208.102v53.331l-144.946 0.002zM485.436 653.44v-53.222h53.333v53.222h-53.333zM602.769 653.548l207.898 0.002c5.892 0 10.667-4.776 10.667-10.667v-32c0-5.891-4.774-10.667-10.667-10.667h-207.898v53.331zM538.769 536.217h-53.333v-406.613h53.333v406.613zM602.769 129.604v406.613h175.898v-310.613c0-53.018-42.982-96-96-96h-79.898zM421.436 129.604v406.613h-176.102v-310.613c0-53.018 42.981-96 96-96h80.102z" />
<glyph unicode="&#xe939;" glyph-name="gift-02" d="M778.667 728.958c0 44.503-51.29 69.432-86.285 41.937l-87.859-69.033h174.144v27.096zM842.667 694.676v34.282c0 97.907-112.841 152.751-189.824 92.262l-140.843-110.662-140.842 110.662c-76.986 60.489-189.824 5.645-189.824-92.262v-34.282c-25.226-11.984-42.667-37.696-42.667-67.481v-32c0-29.786 17.44-55.497 42.667-67.481v-318.225c0-88.367 71.634-160 160-160h341.333c88.367 0 160 71.633 160 160v318.225c25.225 11.984 42.667 37.696 42.667 67.481v32c0 29.786-17.442 55.497-42.667 67.481zM671.991 584.529h138.675c5.892 0 10.667 4.776 10.667 10.667v32c0 5.891-4.774 10.667-10.667 10.667h-138.675v-53.333zM607.991 584.529v53.333h-191.998v-53.333h191.998zM415.993 520.529h191.998v-210.999c0-3.614-1.079-5.585-2.129-6.831-1.259-1.498-3.315-2.867-5.982-3.524s-5.124-0.401-6.938 0.337c-1.506 0.614-3.379 1.856-5.060 5.060l-9.673 18.415c-27.955 53.235-104.158 53.274-132.173 0.068l-9.937-18.88c-1.685-3.196-3.558-4.437-5.069-5.052-1.813-0.738-4.271-0.994-6.931-0.333-2.662 0.657-4.719 2.027-5.979 3.524-1.050 1.246-2.128 3.217-2.128 6.831v211.383zM351.993 584.529v53.333h-138.66c-5.891 0-10.667-4.776-10.667-10.667v-32c0-5.891 4.776-10.667 10.667-10.667h138.66zM419.478 701.862l-87.86 69.033c-34.993 27.495-86.284 2.566-86.284-41.937v-27.096h174.144zM245.333 520.102h106.66v-210.957c0-77.943 104.421-103.757 140.734-34.786l9.941 18.88c4.002 7.599 14.886 7.595 18.88-0.013l9.673-18.415c36.262-69.043 140.77-43.268 140.77 34.718v210.573h106.675v-310.613c0-53.018-42.982-96-96-96h-341.333c-53.019 0-96 42.982-96 96v310.613z" />
<glyph unicode="&#xe93a;" glyph-name="gift-03" d="M410.681 770.868c-8.925 18.584-28.54 29.581-49.050 27.499-52.111-5.291-60.597-77.702-11.122-94.898l111.081-38.61-50.909 106.010zM334.204 641.38l-4.707 1.636c-114.187 39.689-94.6 206.813 25.67 219.024 47.338 4.806 92.608-20.574 113.207-63.466l49.387-102.842 49.387 102.842c20.599 42.892 65.869 68.271 113.207 63.466 120.269-12.21 139.857-179.334 25.673-219.024l-4.71-1.636h168.017c41.237 0 74.667-33.43 74.667-74.667v-32c0-35.82-25.22-65.751-58.876-72.996v-268.339c0-88.367-71.633-160-160-160h-426.666c-88.366 0-160 71.633-160 160v268.429c-33.444 7.403-58.458 37.231-58.458 72.906v32c0 41.237 33.429 74.667 74.667 74.667h179.537zM573.931 664.858l111.083 38.61c49.476 17.196 40.986 89.608-11.123 94.898-20.51 2.082-40.124-8.914-49.050-27.499l-50.91-106.010zM154.667 524.045h714.667c5.892 0 10.667 4.779 10.667 10.668v32c0 5.891-4.774 10.667-10.667 10.667h-714.667c-5.891 0-10.667-4.776-10.667-10.667v-32c0-5.89 4.776-10.668 10.667-10.668zM202.458 460.045v-266.667c0-53.022 42.981-96 96-96h426.666c53.022 0 96 42.978 96 96v266.667h-618.666z" />
<glyph unicode="&#xe93b;" glyph-name="grid-plus" d="M138.667 710.093c0 64.801 52.532 117.333 117.333 117.333h85.333c64.801 0 117.333-52.532 117.333-117.333v-85.333c0-64.801-52.532-117.333-117.333-117.333h-85.333c-64.801 0-117.333 52.532-117.333 117.333v85.333zM256 763.426c-29.455 0-53.333-23.878-53.333-53.333v-85.333c0-29.455 23.878-53.333 53.333-53.333h85.333c29.455 0 53.333 23.878 53.333 53.333v85.333c0 29.455-23.878 53.333-53.333 53.333h-85.333zM565.333 710.093c0 64.801 52.531 117.333 117.333 117.333h85.333c64.802 0 117.333-52.532 117.333-117.333v-85.333c0-64.801-52.531-117.333-117.333-117.333h-85.333c-64.802 0-117.333 52.532-117.333 117.333v85.333zM682.667 763.426c-29.457 0-53.333-23.878-53.333-53.333v-85.333c0-29.455 23.876-53.333 53.333-53.333h85.333c29.457 0 53.333 23.878 53.333 53.333v85.333c0 29.455-23.876 53.333-53.333 53.333h-85.333zM723.042 400.759c17.673 0 32-14.327 32-32v-93.709h93.705c17.677 0 32-14.327 32-32s-14.323-32-32-32h-93.705v-93.705c0-17.677-14.327-32-32-32s-32 14.323-32 32v93.705h-93.709c-17.673 0-32 14.327-32 32s14.327 32 32 32h93.709v93.709c0 17.673 14.327 32 32 32zM138.667 271.241c0 64.798 52.532 117.333 117.333 117.333h85.333c64.801 0 117.333-52.535 117.333-117.333v-85.333c0-64.802-52.532-117.333-117.333-117.333h-85.333c-64.801 0-117.333 52.531-117.333 117.333v85.333zM256 324.574c-29.455 0-53.333-23.881-53.333-53.333v-85.333c0-29.457 23.878-53.333 53.333-53.333h85.333c29.455 0 53.333 23.876 53.333 53.333v85.333c0 29.453-23.878 53.333-53.333 53.333h-85.333z" />
<glyph unicode="&#xe93c;" glyph-name="headphone" d="M512 780.8c-183.467 0-332.8-149.333-332.8-332.8v-213.333c0-64 51.2-119.467 119.467-119.467s119.467 51.2 119.467 119.467v85.333c0 64-51.2 119.467-119.467 119.467-21.333 0-38.4-4.267-51.2-12.8v21.333c0 149.333 119.467 264.533 264.533 264.533s264.533-115.2 264.533-264.533v-21.333c-17.067 8.533-34.133 12.8-51.2 12.8-64 0-119.467-51.2-119.467-119.467v-85.333c0-64 51.2-119.467 119.467-119.467s119.467 51.2 119.467 119.467v213.333c-4.267 183.467-153.6 332.8-332.8 332.8zM298.667 375.467c29.867 0 51.2-25.6 51.2-51.2v-85.333c0-29.867-25.6-55.467-51.2-55.467s-51.2 25.6-51.2 51.2v85.333c-4.267 29.867 21.333 55.467 51.2 55.467zM776.533 234.667c0-29.867-25.6-51.2-51.2-51.2s-51.2 25.6-51.2 51.2v85.333c0 29.867 25.6 51.2 51.2 51.2s51.2-25.6 51.2-51.2v-85.333z" />
<glyph unicode="&#xe93d;" glyph-name="heart" d="M778.628 674.711c-60.134 60.035-160.683 47.539-204.292-25.389-28.186-47.13-96.422-47.109-124.646-0.072-43.784 72.977-144.51 85.401-204.66 25.251l-16.34-16.34c-54.153-54.153-54.153-141.95 0-196.102l275.818-275.819c4.164-4.164 10.918-4.164 15.083 0l275.716 275.716c54.187 54.187 54.148 142.046-0.081 196.186l-16.597 16.569zM519.407 682.169c64.99 108.677 214.827 127.299 304.439 37.835l16.597-16.569c79.258-79.127 79.313-207.541 0.119-286.731l-275.716-275.716c-29.158-29.163-76.437-29.163-105.596 0l-275.816 275.814c-79.146 79.147-79.146 207.468 0 286.614l16.34 16.34c89.62 89.62 239.606 71.067 304.797-37.578 3.371-5.624 11.499-5.585 14.835-0.009z" />
<glyph unicode="&#xe93e;" glyph-name="Hotspot" d="M407.273 421.649c21.818 35.136 61.092 61.487 104.727 61.487s82.91-21.961 104.725-61.487c8.73-17.57 17.455-39.531 17.455-61.491 0-17.57-13.090-35.14-34.906-35.14-21.82 0-34.91 17.57-34.91 35.14 0 8.785-4.365 21.961-8.73 26.351-8.725 17.57-26.18 26.355-48 26.355-21.815 0-39.27-8.785-48-26.355-4.361-8.785-8.725-17.566-8.725-26.351 0-17.57-13.090-35.14-34.91-35.14-17.455 0-34.909 13.18-34.909 35.14 8.727 21.961 13.091 43.921 26.182 61.491zM293.818 487.531c43.636 74.665 122.182 127.371 218.182 127.371 91.635 0 174.545-52.706 218.18-127.371 21.82-35.14 34.91-79.061 34.91-127.373 0-43.921-13.090-87.842-34.91-127.373-8.725-17.57-30.545-21.961-43.635-13.175-17.455 8.781-21.82 30.741-13.090 43.921 17.455 26.351 26.18 57.097 26.18 92.233 0 35.14-8.725 65.886-26.18 92.237-30.545 57.097-91.635 92.235-161.455 92.235s-126.545-35.139-161.455-92.235c-17.455-26.351-26.182-57.097-26.182-92.237 0-35.136 8.727-65.882 26.182-92.233 8.727-17.57 4.364-35.14-13.091-43.921-17.455-8.785-34.909-4.395-43.636 13.175-21.818 39.531-34.909 83.452-34.909 127.373 0 48.311 13.091 92.233 34.909 127.373zM180.364 553.412c65.455 114.196 187.636 193.255 331.636 193.255 139.635 0 266.18-79.059 331.635-193.255 30.545-57.096 52.365-122.982 52.365-193.254 0-70.276-17.455-136.158-52.365-193.254-8.725-17.57-30.545-21.961-43.635-13.18-17.455 8.785-21.82 30.746-13.090 43.925 26.18 48.311 43.635 101.018 43.635 158.114 0 57.101-17.455 114.197-43.635 158.118-56.73 96.628-157.090 158.118-274.91 158.118-117.818 0-218.182-65.882-274.909-158.118-26.182-48.311-43.636-101.018-43.636-158.118 0-57.097 17.455-114.193 43.636-158.114 8.727-17.57 4.364-35.14-13.091-43.925-17.455-8.781-34.909-4.39-43.636 13.18-34.909 61.487-52.364 127.373-52.364 193.254 0 70.272 17.455 136.158 52.364 193.254z" />
<glyph unicode="&#xe93f;" glyph-name="house-01" d="M452.228 867.317c39.228 10.678 80.35 10.698 119.309-0.041 45.38-12.39 85.397-44.543 150.080-96.509l2.423-1.949 76.749-61.399c1.242-0.992 2.47-1.973 3.682-2.942 38.724-30.97 63.010-50.393 80.93-75.032l0.158-0.221c15.565-21.789 27.204-45.919 34.368-71.884 8.085-29.199 8.081-60.555 8.073-110.087 0-1.591 0-3.196 0-4.821v-197.76c0-123.657-100.343-224-224-224-1.69 0-3.349 0.132-4.971 0.384h-379.029c-123.657 0-224 100.343-224 224v197.76c0 1.626 0 3.23 0 4.821-0.008 49.527-0.013 80.879 8.070 110.076 7.158 25.937 18.813 50.174 34.545 71.751 17.568 24.149 41.32 43.351 78.804 73.656 1.851 1.496 3.735 3.020 5.654 4.572l0.137 0.111 76.903 61.521c1.958 1.554 3.893 3.089 5.804 4.605 31.212 24.769 56.257 44.644 77.922 59.5 23.281 15.964 44.649 27.569 68.389 33.885zM708.548 84.736c86.212 2.411 155.452 73.143 155.452 159.936v197.76c0 55.945-0.273 78.046-5.751 97.828-5.107 18.523-13.419 35.848-24.687 51.651-12.233 16.781-29.244 30.726-72.751 65.533l-76.851 61.481c-70.571 56.695-99.238 78.417-129.306 86.618l-0.090 0.025c-27.81 7.671-57.289 7.696-85.598-0.025l-0.213-0.058c-13.85-3.674-28.356-10.874-48.719-24.837-19.754-13.545-43.127-32.090-75.491-57.769-1.515-1.201-3.049-2.419-4.603-3.652l-0.052-0.041-76.628-61.303c-43.642-35.31-60.623-49.201-72.9-66.081-11.14-15.278-19.471-32.534-24.6-51.128-5.478-19.782-5.76-41.914-5.76-97.858v-197.76c0-88.311 71.689-160 160-160h384c1.545 0 3.063-0.111 4.548-0.32zM511.991 385.911c-46.071 0-83.2-37.129-83.2-83.2v-153.6c0-17.673-14.326-32-31.999-32s-32 14.327-32 32v153.6c0 81.417 65.783 147.2 147.199 147.2s147.2-65.783 147.2-147.2v-153.6c0-17.673-14.327-32-32-32s-32 14.327-32 32v153.6c0 46.071-37.129 83.2-83.2 83.2z" />
<glyph unicode="&#xe940;" glyph-name="house-02" d="M455.821 840.216c36.868 10.035 75.524 10.055 112.154-0.041 42.667-11.65 80.226-41.83 140.023-89.873l2.65-2.128 71.39-57.113c1.216-0.974 2.419-1.936 3.61-2.887 35.84-28.663 58.658-46.909 75.507-70.077l0.162-0.221c14.626-20.477 25.566-43.16 32.303-67.571 7.607-27.464 7.599-56.921 7.59-102.762 0-1.553 0-3.132 0-4.727v-183.962c0-116.262-94.34-210.603-210.603-210.603-1.63 0-3.234 0.119-4.8 0.354h-61.884c-1.557-0.23-3.145-0.35-4.766-0.35-1.617 0-3.209 0.119-4.762 0.35h-204.8c-1.554-0.23-4.763-0.35-4.763-0.35s-3.209 0.119-4.762 0.35h-66.674c-116.263 0-210.604 94.345-210.604 210.607v183.962c0 1.596 0 3.17-0.001 4.727-0.009 45.833-0.014 75.29 7.588 102.75 6.729 24.384 17.689 47.174 32.483 67.466 16.521 22.709 38.842 40.753 73.554 68.815 1.771 1.432 3.575 2.89 5.411 4.375l0.137 0.111 71.545 57.235c1.833 1.454 3.643 2.891 5.433 4.311 29 23.014 52.357 41.549 72.577 55.415 21.758 14.92 41.873 25.868 64.303 31.836zM436.834 112.606h150.323v110.532c0 41.626-33.54 75.162-75.162 75.162-41.626 0-75.162-33.536-75.162-75.162v-110.532zM651.157 112.606v110.532c0 76.971-62.191 139.162-139.162 139.162s-139.163-62.191-139.163-139.162v-110.532h-39.437c-80.916 0-146.604 65.69-146.604 146.607v183.962c0 52.169 0.273 72.367 5.269 90.407 4.701 17.041 12.32 32.849 22.522 46.841 11.205 15.407 26.737 28.151 67.431 61.076l71.322 57.057c1.428 1.133 2.837 2.252 4.229 3.356 30.154 23.924 51.839 41.13 70.148 53.685 18.842 12.918 32.094 19.462 44.629 22.788l0.213 0.058c25.954 7.078 52.971 7.053 78.447 0.025l0.090-0.025c27.418-7.477 53.67-27.298 119.471-80.162l71.497-57.195c40.559-32.448 56.094-45.215 67.26-60.523 10.33-14.49 17.933-30.339 22.613-47.307 4.996-18.044 5.278-38.272 5.278-90.441v-183.962c0-79.458-63.343-144.235-142.251-146.543-1.425 0.196-2.876 0.294-4.352 0.294h-39.45z" />
<glyph unicode="&#xe941;" glyph-name="image" d="M657.067 780.8h-273.067c-115.2 0-204.8-89.6-204.8-204.8v-256c0-110.933 89.6-204.8 204.8-204.8h256c110.933 0 204.8 89.6 204.8 204.8v277.333c-4.267 102.4-89.6 183.467-187.733 183.467zM780.8 314.406c0-76.8-68.267-130.94-140.8-130.94h-256c-76.8 0-136.533 64-136.533 136.533v42.667l51.2-34.133c64-42.667 149.333-34.133 200.533 21.333l98.133 93.867c8.533 12.8 29.867 8.533 38.4 0 42.667-42.667 98.133-46.933 145.067-25.6v-103.727zM776.533 524.8c0-51.2-64-76.8-98.133-38.4s-93.867 38.4-132.267 4.267l-93.867-93.867c-34.133-34.133-81.067-38.4-119.467-12.8l-64 42.667c-17.067 8.533-25.6 25.6-25.6 42.667v106.667c0 76.8 64 140.8 140.8 140.8h273.067c68.267 0 119.467-51.2 119.467-119.467v-72.533zM379.733 661.333c-51.2 0-93.867-42.667-93.867-93.867s42.667-93.867 93.867-93.867c51.2 0 93.867 42.667 93.867 93.867s-38.4 93.867-93.867 93.867zM379.733 533.333c-17.067 0-29.867 17.067-29.867 34.133s12.8 34.133 34.133 34.133c17.067 0 34.133-12.8 34.133-34.133s-21.333-34.133-38.4-34.133z" />
<glyph unicode="&#xe942;" glyph-name="inbox-01" d="M308.838 842.667c-72.613 0-132.93-56.018-138.289-128.433l-25.637-346.447h155.608c41.237 0 74.667-33.429 74.667-74.667v-42.667c0-5.892 4.775-10.667 10.667-10.667h255.998c5.892 0 10.667 4.774 10.667 10.667v42.667c0 41.237 33.429 74.667 74.667 74.667h148.599l-5.926 63.023c-2.581 27.396-25.583 48.337-53.103 48.337h-174.903c-88.363 0-160 71.634-160 160v150.187c0 29.455-23.876 53.333-53.333 53.333h-119.681zM881.805 303.787h-154.62c-5.888 0-10.667-4.774-10.667-10.667v-42.667c0-41.237-33.429-74.667-74.667-74.667h-255.998c-41.237 0-74.667 33.429-74.667 74.667v42.667c0 5.892-4.776 10.667-10.667 10.667h-160.344l-7.515-101.555c-5.949-80.393 57.674-148.898 138.289-148.898h482.096c81.711 0 145.711 70.302 138.057 151.654l-9.297 98.799zM106.723 718.956c7.832 105.838 95.987 187.71 202.114 187.71h119.681c64.802 0 117.333-52.532 117.333-117.333v-150.187c0-53.019 42.982-96 96-96h174.903c60.544 0 111.151-46.067 116.821-106.342l21.244-225.822c11.183-118.903-82.351-221.649-201.775-221.649h-482.096c-117.821 0-210.809 100.122-202.114 217.621l37.888 512.002zM777.958 900.271c17.673 0 32-14.327 32-32v-177.996c1.988 1.496 3.9 3.151 5.713 4.963l67.657 67.66c12.497 12.497 32.759 12.497 45.257 0s12.497-32.758 0-45.255l-67.661-67.66c-45.82-45.821-120.111-45.821-165.935 0l-67.661 67.66c-12.497 12.497-12.497 32.758 0 45.255s32.759 12.497 45.257 0l67.661-67.66c1.809-1.812 3.721-3.466 5.713-4.963v177.996c0 17.673 14.327 32 32 32z" />
<glyph unicode="&#xe943;" glyph-name="inbox-02" d="M193.725 727.209l-0.015-0.085-54.876-332.457h127.831c53.019 0 96-42.982 96-96 0-38.643 31.328-69.973 69.973-69.973h163.84c35.819 0 64.853 29.035 64.853 64.853v2.987c0 54.199 43.934 98.133 98.133 98.133h125.641l-55.415 332.488c-11.11 66.657-68.783 115.512-136.358 115.512h-362.667c-67.677 0-125.505-48.762-136.941-115.457zM890.88 330.667h-131.413c-18.85 0-34.133-15.283-34.133-34.133v-2.987c0-71.164-57.69-128.853-128.853-128.853h-163.84c-73.991 0-133.973 59.981-133.973 133.973 0 17.673-14.327 32-32 32h-133.547v-53.333c0-123.712 100.288-224 224-224h309.76c123.712 0 224 100.288 224 224v53.333zM130.625 737.902c16.654 97.481 101.148 168.765 200.042 168.765h362.667c98.863 0 183.232-71.473 199.488-168.99l62.059-372.36v-87.983c0-159.057-128.943-288-288-288h-309.76c-159.058 0-288 128.943-288 288v85.333c0 1.745 0.143 3.49 0.427 5.21l61.078 370.025zM298.88 631.468c10.124 14.486 30.074 18.022 44.561 7.898l134.486-93.99c17.126-11.969 39.906-11.969 57.033 0l134.485 93.99c14.485 10.124 34.436 6.588 44.561-7.898s6.588-34.437-7.898-44.56l-134.49-93.992c-39.142-27.354-91.209-27.354-130.351 0l-134.489 93.992c-14.485 10.124-18.022 30.074-7.898 44.56z" />
<glyph unicode="&#xe944;" glyph-name="left" d="M641.293 212.041c12.497 12.497 12.497 32.755 0 45.252l-190.703 190.707 190.703 190.706c12.497 12.497 12.497 32.758 0 45.255s-32.755 12.497-45.252 0l-213.334-213.335c-12.497-12.497-12.497-32.755 0-45.252l213.334-213.333c12.497-12.497 32.755-12.497 45.252 0z" />
<glyph unicode="&#xe945;" glyph-name="life-ring-01" d="M323.295 681.962l39.231-39.231c41.443 31.636 93.248 50.604 149.474 50.604s108.032-18.968 149.474-50.604l39.232 39.231c-51.388 41.686-117.321 66.84-188.706 66.84s-137.318-25.154-188.705-66.84zM745.903 636.649l-39.159-39.159c31.612-41.333 50.59-92.893 50.59-149.49 0-55.983-18.82-108.1-50.782-149.299l39.351-39.347c41.766 51.639 66.897 117.303 66.897 188.646s-25.131 137.009-66.897 188.649zM700.719 214.025l-39.552 39.556c-41.348-31.91-92.885-50.914-149.167-50.914s-107.819 19.004-149.165 50.914l-39.554-39.556c51.578-41.929 117.248-66.825 188.719-66.825 71.475 0 137.139 24.896 188.719 66.825zM278.099 259.354c-41.769 51.639-66.899 117.303-66.899 188.646s25.13 137.009 66.899 188.649l39.159-39.159c-31.614-41.333-50.591-92.893-50.591-149.49 0-55.983 18.82-108.1 50.781-149.299l-39.349-39.347zM254.237 190.323c-65.836 65.856-107.037 157.060-107.037 257.677s41.202 191.825 107.039 257.682c65.513 65.961 157.208 107.12 257.761 107.12 100.557 0 192.252-41.161 257.766-107.123 65.835-65.857 107.034-157.063 107.034-257.679s-41.203-191.825-107.038-257.681c-65.963-66.406-157.239-107.119-257.762-107.119-100.525 0-191.802 40.713-257.763 107.123zM640.414 576.413c-33.131 32.703-78.438 52.922-128.414 52.922s-95.284-20.219-128.412-52.921c-32.727-33.152-52.921-78.046-52.921-128.414 0-50.15 20.337-95.697 53.094-127.735l0.254-0.247c33.145-33.148 78.030-53.35 127.984-53.35s94.839 20.203 127.987 53.346l0.252 0.252c32.755 32.038 53.094 77.585 53.094 127.735 0 50.368-20.194 95.261-52.919 128.413z" />
<glyph unicode="&#xe946;" glyph-name="life-ring-02" d="M866.133 533.329c-34.133 132.268-136.533 234.668-264.533 264.535-8.533 38.4-42.667 68.267-85.333 68.267s-76.8-29.867-85.333-68.267c-136.533-29.867-238.933-136.533-273.066-264.535-38.4-8.533-68.267-42.667-68.267-85.333s29.867-76.8 68.267-85.333c34.133-132.267 136.533-234.667 264.533-264.533 8.533-38.4 46.933-68.267 89.6-68.267s76.8 29.867 89.6 68.267c132.267 34.133 234.667 136.533 264.533 264.533 38.4 8.533 68.267 42.667 68.267 85.333 0 38.4-29.867 72.533-68.267 85.333zM597.333 733.864c98.133-29.867 170.667-106.667 200.533-200.535l-55.467-4.267c-25.6 68.268-81.067 123.735-149.333 149.335l4.267 55.467zM512 802.13c17.067 0 29.867-12.8 25.6-25.6l-4.267-34.133-4.267-55.467-4.267-34.133v-8.533c0-8.533-8.533-12.8-12.8-12.8-8.533 0-12.8 4.267-12.8 12.8v8.533l-4.267 34.133-4.267 55.467-4.267 29.867c0 17.067 8.533 29.867 25.6 29.867zM426.667 733.864l4.267-55.467c-68.266-25.6-123.733-81.067-149.333-149.335h-55.467c25.6 98.135 102.4 174.935 200.533 204.801zM183.467 418.129c-17.067 0-29.867 8.533-29.867 25.6s12.8 25.6 29.867 25.6l29.867-4.267 55.467-4.267 34.133-4.267h8.533c8.533 0 12.8-8.533 12.8-12.8 0-8.533-4.267-12.8-12.8-12.8h-8.533l-34.133-4.267-55.467-4.267-29.867-4.267zM426.667 157.862c-4.266 0-12.8 4.267-17.066 4.267s-12.8 4.267-17.067 8.533c-17.067 8.533-34.133 17.067-46.933 25.6-17.067 8.533-29.867 21.333-42.667 34.133-34.133 34.133-59.733 76.8-76.8 123.733l55.467 4.267c4.267-17.067 12.8-34.133 25.6-51.2 8.533-17.067 21.333-29.867 34.133-42.667 25.6-25.6 55.467-46.933 93.866-59.733l-8.533-46.933zM512 85.329c-8.533 0-12.8 4.267-17.067 8.533l-4.267 4.267c-4.267 4.267-4.267 8.533-4.267 17.067l4.267 29.867 4.267 55.467 4.267 34.133v8.533c0 8.533 8.533 12.8 12.8 12.8 8.533 0 12.8-4.267 12.8-12.8v-8.533l4.267-34.133 4.267-55.467 4.267-29.867c0-17.067-8.533-29.867-25.6-29.867zM580.267 277.329c-12.8 25.6-38.4 42.667-68.267 42.667s-55.467-17.067-68.267-42.667c-8.533 4.267-21.333 8.533-29.866 17.067-4.267 4.267-8.533 8.533-12.8 12.8s-12.8 4.267-17.067 8.533c-8.533 8.533-17.067 17.067-21.333 25.6s-8.533 17.067-12.8 25.6c0 4.267-4.267 4.267-4.267 8.533 25.6 12.8 42.667 38.4 42.667 68.267s-17.067 55.467-42.667 68.267c4.267 17.067 17.067 34.135 25.6 46.935 4.267 4.267 8.533 8.533 12.8 12.8 12.8 12.8 25.6 21.333 42.666 29.867 4.267 4.267 8.533 4.267 17.067 8.533 12.8-25.6 38.4-42.667 68.267-42.667s55.467 17.067 68.267 42.667c42.667-17.067 81.067-55.467 98.133-98.135-25.6-12.8-42.667-38.4-42.667-68.267 0-4.267 0-8.533 0-12.8s0-4.267 0-8.533c0-8.533 4.267-12.8 8.533-21.333 4.267-4.267 8.533-12.8 12.8-17.067s12.8-8.533 17.067-12.8c-12.8-42.667-46.933-76.8-93.867-93.867zM725.333 230.396c-12.8-12.8-25.6-25.6-42.667-34.133s-29.867-21.333-46.933-25.6c-4.267-4.267-12.8-4.267-17.067-8.533-4.267 0-12.8-4.267-17.067-4.267l-4.267 55.467c68.267 25.6 123.733 81.067 149.333 149.333l55.467-4.267c-17.067-51.2-42.667-89.6-76.8-128zM870.4 443.729c0-17.067-12.8-25.6-25.6-25.6l-34.133 4.267-55.467 4.267h-38.4c-8.533 0-12.8 8.533-12.8 12.8 0 8.533 4.267 12.8 12.8 12.8h8.533l34.133 4.267 55.467 4.267 29.867 4.267c12.8 4.267 25.6-4.267 25.6-21.333z" />
<glyph unicode="&#xe947;" glyph-name="loader" d="M512 832c20.16 0 36.501-16.343 36.501-36.502v-146.008c0-20.159-16.341-36.502-36.501-36.502s-36.501 16.343-36.501 36.502v146.008c0 20.159 16.341 36.502 36.501 36.502zM240.41 719.59c14.255 14.255 37.367 14.255 51.622 0l103.179-103.179c14.255-14.255 14.255-37.367 0-51.621s-37.367-14.255-51.621 0l-103.179 103.179c-14.255 14.255-14.255 37.367 0 51.622zM783.59 719.59c14.255-14.255 14.255-37.367 0-51.622l-103.181-103.179c-14.255-14.255-37.363-14.255-51.618 0s-14.255 37.366 0 51.621l103.177 103.179c14.255 14.255 37.367 14.255 51.622 0zM128 448c0 20.16 16.343 36.501 36.502 36.501h146.008c20.159 0 36.502-16.341 36.502-36.501s-16.343-36.501-36.502-36.501h-146.008c-20.159 0-36.502 16.341-36.502 36.501zM676.988 448c0 20.16 16.341 36.501 36.501 36.501h146.010c20.16 0 36.501-16.341 36.501-36.501s-16.341-36.501-36.501-36.501h-146.010c-20.16 0-36.501 16.341-36.501 36.501zM395.21 331.209c14.255-14.255 14.255-37.363 0-51.618l-103.179-103.181c-14.255-14.255-37.367-14.255-51.622 0s-14.255 37.367 0 51.622l103.179 103.177c14.255 14.255 37.367 14.255 51.621 0zM628.791 331.209c14.255 14.255 37.363 14.255 51.618 0l103.181-103.177c14.255-14.255 14.255-37.367 0-51.622s-37.367-14.255-51.622 0l-103.177 103.181c-14.255 14.255-14.255 37.363 0 51.618zM512 283.012c20.16 0 36.501-16.341 36.501-36.501v-146.010c0-20.16-16.341-36.501-36.501-36.501s-36.501 16.341-36.501 36.501v146.010c0 20.16 16.341 36.501 36.501 36.501z" />
<glyph unicode="&#xe948;" glyph-name="loading-trolley" d="M114.854 697.853c2.38 17.512 18.506 29.779 36.018 27.399l142.53-19.373 355.968-355.969c20.847-20.843 54.647-20.826 75.469 0.043l129.954 130.244c12.48 12.514 32.742 12.535 45.252 0.051 12.51-12.48 12.535-32.742 0.051-45.252l-129.954-130.244c-24.439-24.495-57.007-35.934-89.037-34.308 0.051-1.327 0.081-2.658 0.081-3.994 0-53.022-42.982-96-96-96-53.022 0-96 42.978-96 96 0 41.412 26.223 76.702 62.972 90.167l-144.051 144.047-66.121-66.121c-12.497-12.497-32.758-12.497-45.255 0s-12.497 32.755 0 45.252l66.121 66.123-99.45 99.45-121.15 16.467c-17.512 2.38-29.779 18.506-27.399 36.018zM587.23 632.091c37.487 37.49 98.274 37.49 135.761 0l30.17-30.17c37.491-37.49 37.491-98.272 0-135.763-37.487-37.491-98.274-37.491-135.761 0l-30.17 30.17c-37.491 37.489-37.491 98.273 0 135.763zM677.739 586.836c-12.497 12.497-32.759 12.497-45.257 0s-12.497-32.757 0-45.254l30.17-30.171c12.497-12.493 32.759-12.493 45.257 0 12.497 12.497 12.497 32.759 0 45.256l-30.17 30.17zM585.186 298.449c-17.673 0-32-14.327-32-32 0-17.677 14.327-32 32-32s32 14.323 32 32c0 17.673-14.327 32-32 32z" />
<glyph unicode="&#xe949;" glyph-name="location" d="M512 836.995c-199.773 0-334.831-203.788-256.992-387.77l129.284-305.583c47.742-112.849 207.669-112.849 255.413 0l129.284 305.583c77.841 183.983-57.216 387.77-256.99 387.77zM196.067 424.286c-95.692 226.182 70.342 476.709 315.933 476.709 245.594 0 411.627-250.527 315.934-476.709l-129.284-305.579c-69.781-164.937-303.52-164.932-373.299 0l-129.284 305.579zM511.991 666.328c-41.237 0-74.667-33.43-74.667-74.667s33.429-74.665 74.667-74.665c41.237 0 74.667 33.428 74.667 74.665s-33.429 74.667-74.667 74.667zM373.325 591.662c0 76.583 62.084 138.667 138.667 138.667s138.667-62.083 138.667-138.667c0-76.585-62.084-138.665-138.667-138.665s-138.667 62.080-138.667 138.665z" />
<glyph unicode="&#xe94a;" glyph-name="mic" d="M514.133 874.667c-89.6 0-162.133-72.533-162.133-162.133v-213.333c0-89.6 72.533-162.133 162.133-162.133s162.133 72.533 162.133 162.133v213.333c-4.267 89.6-76.8 162.133-162.133 162.133zM608 499.2c0-51.2-42.667-93.867-93.867-93.867s-93.867 42.667-93.867 93.867v213.333c0 51.2 42.667 93.867 93.867 93.867s93.867-42.667 93.867-93.867v-213.333zM800 541.867v-42.667c0-149.333-110.933-268.8-256-285.867v-157.867c0-17.067-12.8-34.133-34.133-34.133s-29.867 17.067-29.867 34.133v157.867c-145.067 17.067-256 136.533-256 285.867v42.667c0 21.333 12.8 34.133 34.133 34.133s34.133-12.8 34.133-34.133v-42.667c0-123.733 98.133-221.867 221.867-221.867s221.867 98.133 221.867 221.867v42.667c0 21.333 12.8 34.133 34.133 34.133s29.867-12.8 29.867-34.133z" />
<glyph unicode="&#xe94b;" glyph-name="minus" d="M213.333 456.533c0 21.333 12.8 34.133 34.133 34.133h490.667c17.067 0 34.133-12.8 34.133-34.133s-12.8-34.133-34.133-34.133h-490.667c-21.333 4.267-34.133 17.067-34.133 34.133z" />
<glyph unicode="&#xe94c;" glyph-name="minus-circle" d="M138.667 448c0 206.186 167.147 373.333 373.333 373.333s373.333-167.147 373.333-373.333c0-206.187-167.147-373.333-373.333-373.333s-373.333 167.147-373.333 373.333zM512 757.333c-170.84 0-309.333-138.493-309.333-309.333 0-170.842 138.493-309.333 309.333-309.333 170.842 0 309.333 138.492 309.333 309.333 0 170.84-138.492 309.333-309.333 309.333zM313.173 444.16c0 17.673 14.327 32 32 32h341.333c17.673 0 32-14.327 32-32s-14.327-32-32-32h-341.333c-17.673 0-32 14.327-32 32z" />
<glyph unicode="&#xe94d;" glyph-name="modules" d="M110.084 732.582c0 64.801 52.532 117.333 117.333 117.333h85.333c64.801 0 117.334-52.532 117.334-117.333v-85.333c0-64.801-52.532-117.333-117.334-117.333h-10.667v-67.84c0-17.673-14.327-32-32-32s-32 14.327-32 32v67.84h-10.667c-64.801 0-117.333 52.532-117.333 117.333v85.333zM312.751 593.916c29.455 0 53.333 23.878 53.333 53.333v85.333c0 29.455-23.878 53.333-53.333 53.333h-85.333c-29.455 0-53.333-23.878-53.333-53.333v-85.333c0-29.455 23.878-53.333 53.333-53.333h85.333zM593.916 732.582v-10.667h-67.831c-17.673 0-32-14.327-32-32s14.327-32 32-32h67.831v-10.667c0-64.801 52.535-117.333 117.333-117.333h85.333c64.802 0 117.333 52.532 117.333 117.333v85.333c0 64.801-52.531 117.333-117.333 117.333h-85.333c-64.798 0-117.333-52.532-117.333-117.333zM657.916 689.256c0.004 0.219 0.009 0.439 0.009 0.66s-0.004 0.441-0.009 0.66v42.007c0 29.455 23.881 53.333 53.333 53.333h85.333c29.457 0 53.333-23.878 53.333-53.333v-85.333c0-29.455-23.876-53.333-53.333-53.333h-85.333c-29.453 0-53.333 23.878-53.333 53.333v42.007zM753.916 465.916c17.677 0 32-14.327 32-32v-67.831h10.667c64.802 0 117.333-52.535 117.333-117.333v-85.333c0-64.802-52.531-117.333-117.333-117.333h-85.333c-64.798 0-117.333 52.531-117.333 117.333v85.333c0 64.798 52.535 117.333 117.333 117.333h10.667v67.831c0 17.673 14.327 32 32 32zM753.259 302.084h-42.010c-29.453 0-53.333-23.881-53.333-53.333v-85.333c0-29.457 23.881-53.333 53.333-53.333h85.333c29.457 0 53.333 23.876 53.333 53.333v85.333c0 29.453-23.876 53.333-53.333 53.333h-42.005c-0.218-0.004-0.439-0.009-0.661-0.009-0.218 0-0.439 0.004-0.657 0.009zM110.084 248.751c0 64.798 52.532 117.333 117.333 117.333h85.333c64.801 0 117.334-52.535 117.334-117.333v-10.667h67.84c17.673 0 32-14.327 32-32 0-17.677-14.327-32-32-32h-67.84v-10.667c0-64.802-52.532-117.333-117.334-117.333h-85.333c-64.801 0-117.333 52.531-117.333 117.333v85.333zM366.084 248.751c0 29.453-23.878 53.333-53.333 53.333h-85.333c-29.455 0-53.333-23.881-53.333-53.333v-85.333c0-29.457 23.878-53.333 53.333-53.333h85.333c29.455 0 53.333 23.876 53.333 53.333v85.333z" />
<glyph unicode="&#xe94e;" glyph-name="multiply" d="M311.466 648.53c12.8 12.8 34.133 12.8 46.933 0l153.601-153.601 153.6 153.601c12.8 12.8 34.133 12.8 46.933 0s12.8-34.133 0-46.933l-153.6-153.601 153.6-153.6c12.8-12.8 12.8-34.133 0-46.933s-34.133-12.8-46.933 0l-153.6 153.6-153.601-153.6c-12.8-12.8-34.133-12.8-46.933 0s-12.8 34.133 0 46.933l153.601 153.6-153.601 153.601c-12.8 12.8-12.8 34.133 0 46.933z" />
<glyph unicode="&#xe94f;" glyph-name="music-01" d="M752 647.982c0 35.214-33.523 60.762-67.473 51.424l-256-70.4c-23.151-6.366-39.194-27.415-39.194-51.424v-63.64l362.667 99.729v34.311zM816 647.982v-309.362c0-50.074-40.593-90.667-90.667-90.667s-90.667 40.593-90.667 90.667v32c0 50.074 40.593 90.667 90.667 90.667 9.28 0 18.236-1.395 26.667-3.985v89.995l-362.667-99.731v-226.278c0-50.074-40.593-90.667-90.667-90.667s-90.667 40.593-90.667 90.667v32c0 50.074 40.593 90.667 90.667 90.667 9.28 0 18.235-1.395 26.667-3.985v237.614c0 52.82 35.293 99.128 86.222 113.134l255.999 70.4c74.697 20.541 148.446-35.664 148.446-113.134zM325.333 253.286c0 14.724-11.939 26.667-26.667 26.667s-26.667-11.942-26.667-26.667v-32c0-14.729 11.939-26.667 26.667-26.667s26.667 11.938 26.667 26.667v32zM752 370.62c0 14.724-11.938 26.667-26.667 26.667s-26.667-11.942-26.667-26.667v-32c0-14.729 11.938-26.667 26.667-26.667s26.667 11.938 26.667 26.667v32z" />
<glyph unicode="&#xe950;" glyph-name="music-02" d="M160 597.333c0 111.93 90.737 202.667 202.667 202.667h256c111.932 0 202.667-90.737 202.667-202.667v-256c0-111.932-90.735-202.667-202.667-202.667h-256c-111.93 0-202.667 90.735-202.667 202.667v256zM362.667 736c-76.584 0-138.667-62.083-138.667-138.667v-256c0-76.582 62.083-138.667 138.667-138.667h256c76.582 0 138.667 62.084 138.667 138.667v256c0 76.584-62.084 138.667-138.667 138.667h-256zM602.027 570.782c0 7.043-6.707 12.153-13.495 10.284l-139.52-38.388c-4.629-1.274-7.838-5.483-7.838-10.284v-189.141c0-34.756-28.176-62.933-62.933-62.933s-62.933 28.177-62.933 62.933v16.64c0 34.402 27.601 62.353 61.867 62.925v109.577c0 33.608 22.454 63.075 54.861 71.991l139.52 38.388c47.535 13.079 94.473-22.688 94.473-71.991v-166.089c0-34.756-28.177-62.933-62.933-62.933s-62.933 28.177-62.933 62.933v16.64c0 34.402 27.601 62.353 61.867 62.925v86.524z" />
<glyph unicode="&#xe951;" glyph-name="mute" d="M370.667 774.298l-93.867-123.733c-8.533 0-12.8 0-21.333 0-68.267 0-119.467-51.2-119.467-115.2v-170.668c0-64 51.2-119.467 119.467-119.467 8.533 0 17.067 0 25.6 4.267 0 0 0 0 0-4.267l93.867-123.733c68.267-89.6 213.333-42.667 213.333 72.533v512.001c-4.267 110.933-149.333 157.867-217.6 68.267zM255.467 309.231c-29.867 0-51.2 25.6-51.2 51.2v170.667c0 29.868 25.6 51.201 51.2 51.201 4.267 4.267 8.533 0 8.533-4.267v-256.001c0-8.533-4.267-12.8-8.533-12.8zM520 194.031c0-51.2-64-72.533-93.867-34.133l-93.867 123.733v320.001c0 4.267 0 4.267 0 4.267l93.867 128c29.867 42.667 93.867 21.333 93.867-34.133v-507.734zM878.4 381.764c12.8-12.8 12.8-34.133 0-46.933s-34.133-12.8-46.933 0l-64 64-64-64c-12.8-12.8-34.133-12.8-46.933 0s-12.8 34.133 0 46.933l64 64-64 68.267c-12.8 12.8-12.8 34.134 0 46.934s34.133 12.8 46.933 0l64-68.268 64 68.268c12.8 12.8 34.133 12.8 46.933 0s12.8-34.134 0-46.934l-64-68.267 64-64z" />
<glyph unicode="&#xe952;" glyph-name="pencil" d="M746.688 648.838l-29.867 29.867c-29.867 29.867-76.8 29.867-106.667 0l-285.866-285.868c-12.8-12.8-25.6-29.867-29.867-51.2l-34.133-106.667c-4.267-12.8 0-25.6 8.533-29.867 8.533-8.533 21.333-12.8 29.867-8.533l106.667 29.867c17.067 4.267 34.133 17.067 51.2 29.867l285.867 285.868c29.867 29.867 29.867 76.8 4.267 106.667zM413.888 303.236c-8.533-4.267-12.8-12.8-21.333-12.8l-51.2-17.067 17.067 51.2c4.267 8.533 8.533 17.067 12.8 21.333l204.8 204.801 46.933-46.935-209.066-200.533zM699.755 589.104l-38.4-38.4-46.933 46.933 38.4 38.4c4.267 4.267 8.533 4.267 17.067 0l29.867-29.867c4.267-8.533 4.267-12.8 0-17.067z" />
<glyph unicode="&#xe953;" glyph-name="planet-01" d="M753.818 560.698c-62.242 133.477-220.902 191.225-354.38 128.983s-191.225-220.903-128.984-354.381c14.843-31.834 35.17-59.358 59.331-81.975 168.016 17.489 325.562 89.173 448.933 203.635-1.156 34.88-9.22 70.11-24.9 103.738zM764.156 360.841c-103.334-79.791-224.021-134.622-352.451-159.876 66.285-26.931 143.166-27.273 213.127 5.35 68.139 31.774 116.544 88.674 139.324 154.526zM308.677 187.247c94.85-73.886 226.755-93.235 343.201-38.933 114.206 53.252 183.701 163.43 190.46 280.994 21.769 21.577 42.458 44.442 61.948 68.535l27.392 33.869c59.989 74.159 11.119 185.108-84.087 190.908l-147.204 8.967c-5.030 0.306-9.86-0.567-14.217-2.38-91.575 56.556-208.943 67.365-313.779 18.479s-171.999-145.742-187.538-252.249c-4.191-2.172-7.964-5.312-10.962-9.361l-84.61-114.283c-57.568-77.76-1.583-187.857 95.164-187.149l70.881 0.521c17.862 0.132 35.654 0.828 53.352 2.082zM247.883 249.114c-13.578 18.078-25.496 37.828-35.433 59.14-13.104 28.1-21.919 57.101-26.713 86.263l-45.019-60.809c-26.167-35.345-0.719-85.389 43.256-85.065l63.909 0.469zM762.906 663.66l80.794-4.922c43.277-2.636 65.489-53.068 38.221-86.777l-27.392-33.865c-6.106-7.545-12.335-14.961-18.688-22.244-5.116 24.308-13.073 48.414-24.021 71.892-13.103 28.102-29.653 53.496-48.913 75.915z" />
<glyph unicode="&#xe954;" glyph-name="planet-02" d="M512.026 757.333c-170.84 0-309.333-138.493-309.333-309.333 0-104.512 51.83-196.919 131.188-252.915 55.685 19.14 118.937 49.583 184.328 90.155 15.014 9.318 34.743 4.698 44.062-10.321 9.318-15.014 4.698-34.743-10.321-44.062-48.508-30.097-96.533-55.296-142.131-74.906 31.995-11.196 66.393-17.284 102.208-17.284 170.842 0 309.333 138.492 309.333 309.333 0 2.291-0.021 4.578-0.073 6.857-34.812-39.65-76.471-79.953-123.473-118.95-13.598-11.285-33.775-9.408-45.060 4.194-11.281 13.602-9.404 33.775 4.194 45.060 62.409 51.78 113.707 104.99 150.716 154.155-21.252 68.879-65.916 127.488-124.693 166.534-4.459 1.591-8.538 4.157-11.913 7.528-46.468 27.908-100.877 43.955-159.031 43.955zM699.174 771.11c-55.023 31.937-118.95 50.223-187.149 50.223-206.186 0-373.333-167.147-373.333-373.333 0-26.825 2.829-52.988 8.205-78.208-25.852-38.093-44.741-75.516-53.757-110.037-9.671-37.026-9.055-75.601 13.281-106.342 21.994-30.272 57.737-42.863 95.253-45.376 36.046-2.419 78.105 3.994 122.968 16.99 55.074-32.021 119.087-50.359 187.383-50.359 206.187 0 373.333 167.147 373.333 373.333 0 26.897-2.842 53.129-8.247 78.409 26.756 39.428 46.157 78.289 54.754 114.030 8.589 35.709 7.258 72.691-14.285 102.341-22.686 31.223-59.955 43.631-98.867 45.589-35.187 1.77-75.977-4.623-119.539-17.258zM766.601 721.077c34.782-32.44 63.364-71.447 83.763-115.046 9.37 18.209 15.77 34.786 19.277 49.373 6.204 25.792 2.513 41.019-3.836 49.757-6.682 9.192-21.18 17.824-50.308 19.289-14.144 0.712-30.528-0.377-48.896-3.372zM257.27 175.091c-34.741 32.448-63.282 71.445-83.651 115.029-8.746-16.998-14.92-32.614-18.557-46.537-7.163-27.426-3.442-43.503 3.135-52.553 6.478-8.917 20.268-17.297 47.759-19.14 14.642-0.981 31.845 0.034 51.313 3.2z" />
<glyph unicode="&#xe955;" glyph-name="planet-03" d="M673.899 659.718c-68.668 52.227-161.195 68.899-243.836 42.317-101.583-32.676-181.635-133.312-185.548-239.162-1.345-36.386-14.211-74.321-42.363-102.396-21.649-21.594-35.737-40.422-42.993-55.441-7.421-15.356-5.512-21.76-4.763-23.356 1.085-2.313 7.164-10.231 33.225-13.965 24.63-3.533 59.465-1.963 102.8 5.841l0.071 0.013c73.487 13.065 165.521 42.769 262.131 87.936l0.055 0.026c96.171 44.74 178.108 96.222 235.221 144.363l0.192 0.162c33.668 27.921 57.382 53.566 70.635 74.742 14.093 22.516 11.827 32.153 10.85 34.234-0.832 1.772-4.774 7.521-21.777 11.738-16.61 4.119-40.687 5.346-71.872 2.383-37.628-3.575-73.771 9.070-102.029 30.564zM410.465 762.961c102.93 33.109 217.183 12.343 302.175-52.303 17.348-13.193 37.824-19.635 57.233-17.791 34.893 3.315 66.974 2.56 93.333-3.978 25.967-6.44 51.81-20.023 64.311-46.674 15.236-32.48 2.944-67.429-14.537-95.366-16.055-25.653-40.627-52.384-70.891-78.863 0.435-6.865 0.563-13.508 0.563-19.84 0-182.366-148.301-330.667-330.667-330.667-87.753 0-167.777 34.21-226.868 90.313-40.119-6.165-76.542-7.735-106.581-3.43-32.713 4.693-66.954 17.894-82.082 50.142-12.404 26.441-6.379 54.669 5.078 78.383 11.622 24.051 31.175 48.725 55.424 72.909 14.431 14.391 22.724 35.729 23.6 59.443 4.966 134.353 104.243 257.302 229.906 297.723zM366.212 224.853c41.841-27.465 91.959-43.375 145.775-43.375 136.329 0 249.122 102.878 264.806 235.063-55.253-39.356-122.547-78.345-197.094-113.024-74.837-34.987-147.951-61.517-213.487-78.665z" />
<glyph unicode="&#xe956;" glyph-name="play" d="M374.068 686.017c-6.372 5.097-15.811 0.561-15.811-7.599v-460.835c0-8.162 9.439-12.698 15.811-7.599l288.024 230.417c4.868 3.895 4.868 11.302 0 15.198l-288.024 230.418zM299.869 678.418c0 57.12 66.072 88.876 110.675 53.193l288.025-230.419c34.086-27.268 34.086-79.117 0-106.385l-288.025-230.417c-44.603-35.682-110.675-3.93-110.675 53.193v460.835z" />
<glyph unicode="&#xe957;" glyph-name="plus" d="M512 731.596c18.103 0 33.186-15.085 33.186-33.187v-217.222h217.225c18.103 0 33.186-15.087 33.186-33.186 0-18.103-15.083-33.19-33.186-33.19h-217.225v-217.22c0-18.103-15.083-33.186-33.186-33.186s-33.186 15.083-33.186 33.186v217.22h-217.224c-18.102 0-33.187 15.087-33.187 33.19 0 18.099 15.085 33.186 33.187 33.186h217.224v217.222c0 18.102 15.083 33.187 33.186 33.187z" />
<glyph unicode="&#xe958;" glyph-name="plus-circle" d="M138.667 448c0 206.186 167.147 373.333 373.333 373.333s373.333-167.147 373.333-373.333c0-206.187-167.147-373.333-373.333-373.333s-373.333 167.147-373.333 373.333zM512 757.333c-170.84 0-309.333-138.493-309.333-309.333 0-170.842 138.493-309.333 309.333-309.333 170.842 0 309.333 138.492 309.333 309.333 0 170.84-138.492 309.333-309.333 309.333zM515.84 646.836c17.673 0 32-14.327 32-32v-138.676h138.667c17.673 0 32-14.327 32-32s-14.327-32-32-32h-138.667v-138.658c0-17.673-14.327-32-32-32s-32 14.327-32 32v138.658h-138.667c-17.673 0-32 14.327-32 32s14.327 32 32 32h138.667v138.676c0 17.673 14.327 32 32 32z" />
<glyph unicode="&#xe959;" glyph-name="radio-waves" d="M292.267 230.396c12.8-12.8 12.8-34.133 0-46.933s-34.133-12.8-46.933 0c-64 68.267-106.667 162.133-106.667 264.533s42.667 196.268 110.933 264.535c12.8 12.8 34.133 12.8 46.933 0s12.8-34.133 0-46.933c-55.467-55.467-89.6-132.268-89.6-217.601s29.867-162.133 85.333-217.6zM330.667 447.996c0 51.2 21.333 93.868 51.2 128.001 12.8 12.8 12.8 34.133 0 46.933s-29.867 12.8-42.667 0c-42.667-42.667-72.533-106.668-72.533-174.935s25.6-128 72.533-174.933c12.8-12.8 34.133-12.8 46.933 0s12.8 34.133 0 46.933c-34.133 29.867-55.467 76.8-55.467 128zM774.4 712.53c-12.8 12.8-34.133 12.8-46.933 0s-12.8-34.133 0-46.933c55.467-55.467 89.6-132.268 89.6-217.601s-34.133-162.133-89.6-217.6c-12.8-12.8-12.8-34.133 0-46.933s34.133-12.8 46.933 0c68.267 68.267 110.933 162.133 110.933 264.533s-42.667 196.268-110.933 264.535zM684.8 622.93c-12.8 12.8-34.133 12.8-46.933 0s-12.8-34.133 0-46.933c34.133-34.133 51.2-76.801 51.2-128.001s-21.333-93.867-51.2-128c-12.8-12.8-12.8-34.133 0-46.933s34.133-12.8 46.933 0c42.667 42.667 72.533 106.667 72.533 174.933s-25.6 128.001-72.533 174.935zM608 447.996c0-42.667-25.6-76.8-64-89.6v-149.333c0-17.067-12.8-34.133-34.133-34.133s-29.867 12.8-29.867 29.867v149.333c-38.4 12.8-64 46.933-64 89.6 0 51.2 42.667 93.868 93.867 93.868s98.133-38.401 98.133-89.601zM544 447.996c0 17.067-12.8 34.133-34.133 34.133s-29.867-17.067-29.867-34.133c0-17.067 12.8-34.133 34.133-34.133s29.867 17.067 29.867 34.133z" />
<glyph unicode="&#xe95a;" glyph-name="user-request" d="M992.201 570.667c0-17.493-14.080-32-32-32h-93.44v-93.867c0-17.493-14.507-32-32-32-17.92 0-32 14.507-32 32v93.867h-93.867c-17.493 0-32 14.507-32 32s14.507 32 32 32h93.867v93.867c0 17.493 14.080 32 32 32 17.493 0 32-14.507 32-32v-93.867h93.44c17.92 0 32-14.507 32-32zM553.161 701.227c0-34.133-10.667-66.56-28.16-92.587-29.867-45.227-81.493-75.52-139.947-75.52-58.88 0-110.507 30.293-140.373 75.52-17.493 26.027-27.733 58.453-27.733 92.587 0 92.587 75.093 168.107 168.107 168.107 92.587 0 168.107-75.52 168.107-168.107zM489.161 701.227c0 57.6-46.933 104.107-104.107 104.107-57.6 0-104.107-46.507-104.107-104.107 0-21.333 6.4-40.96 17.067-57.6 18.773-28.16 50.773-46.507 87.040-46.507 35.84 0 67.84 18.347 86.614 46.507 10.667 16.64 17.493 36.267 17.493 57.6zM639.347 97.067c-71.68-44.373-160.853-70.4-253.867-70.4-98.987 0-199.68 34.56-273.92 84.48-73.387 49.92-102.827 145.92-59.733 226.987 15.36 28.587 36.693 58.027 63.147 80.64 30.293 26.027 70.4 40.533 110.933 40.533 26.027 0 52.48-5.973 76.373-18.773 23.893-12.373 52.053-19.627 83.627-19.627 31.147 0 59.307 7.253 83.2 19.627 59.733 31.573 140.373 25.6 189.44-23.467 17.067-17.067 33.28-36.267 46.933-56.747 61.013-91.307 20.907-209.067-66.133-263.253zM652.147 324.48c-11.093 17.067-24.32 32.853-38.827 47.36-26.453 26.027-75.52 32.853-114.773 12.373-33.28-17.493-71.68-27.307-112.64-27.307-41.387 0-79.787 9.813-113.067 27.307-14.507 7.253-30.72 11.093-46.507 11.093-25.6 0-50.773-8.96-69.973-25.173-18.773-16.213-35.413-38.4-48.213-62.293-26.027-49.493-9.387-110.507 39.253-143.36 64.427-43.52 152.747-73.813 238.080-73.813 81.494 0 158.72 23.040 219.734 61.013 62.72 38.827 84.053 117.333 46.933 172.8z" />
<glyph unicode="&#xe95b;" glyph-name="right" d="M382.706 212.041c-12.497 12.497-12.497 32.755 0 45.252l190.704 190.707-190.704 190.706c-12.497 12.497-12.497 32.758 0 45.255s32.758 12.497 45.253 0l213.333-213.335c12.497-12.497 12.497-32.755 0-45.252l-213.333-213.333c-12.495-12.497-32.756-12.497-45.253 0z" />
<glyph unicode="&#xe95c;" glyph-name="search-01" d="M444.373 782.293c-147.276 0-266.666-119.391-266.666-266.666 0-147.277 119.391-266.667 266.666-266.667 147.277 0 266.667 119.39 266.667 266.667s-119.39 266.666-266.667 266.666zM113.707 515.627c0 182.622 148.044 330.666 330.666 330.666s330.667-148.044 330.667-330.666c0-79.787-28.258-152.973-75.315-210.099l201.195-201.195c12.497-12.497 12.497-32.755 0-45.252s-32.755-12.497-45.252 0l-201.195 201.195c-57.126-47.057-130.313-75.315-210.099-75.315-182.622 0-330.666 148.045-330.666 330.667z" />
<glyph unicode="&#xe95d;" glyph-name="search-02" d="M469.333 757.333c-147.276 0-266.666-119.391-266.666-266.667s119.39-266.667 266.666-266.667c147.277 0 266.667 119.39 266.667 266.667s-119.39 266.667-266.667 266.667zM138.668 490.667c0 182.622 148.044 330.667 330.666 330.667s330.667-148.044 330.667-330.667c0-182.622-148.045-330.667-330.667-330.667s-330.666 148.045-330.666 330.667zM745.374 214.626c12.497 12.497 32.755 12.497 45.252 0l85.333-85.333c12.497-12.497 12.497-32.755 0-45.252s-32.755-12.497-45.252 0l-85.333 85.333c-12.497 12.497-12.497 32.755 0 45.252z" />
<glyph unicode="&#xe95e;" glyph-name="search-03" d="M490.667 736c-147.276 0-266.666-119.391-266.666-266.667s119.39-266.667 266.666-266.667c147.277 0 266.667 119.39 266.667 266.667s-119.39 266.667-266.667 266.667zM160.001 469.333c0 182.622 148.044 330.667 330.666 330.667s330.667-148.044 330.667-330.667c0-79.787-28.258-152.973-75.315-210.099l108.608-108.608c12.497-12.497 12.497-32.755 0-45.252s-32.755-12.497-45.252 0l-108.608 108.608c-57.126-47.057-130.313-75.315-210.099-75.315-182.621 0-330.666 148.045-330.666 330.667z" />
<glyph unicode="&#xe95f;" glyph-name="search-04" d="M474.394 752.266c147.277 0 266.667-119.391 266.667-266.668 0-72.273-28.753-137.83-75.439-185.86-1.079-0.832-2.116-1.745-3.102-2.735-0.96-0.96-1.843-1.963-2.654-3.004-47.991-46.468-113.391-75.068-185.472-75.068-147.275 0-266.666 119.39-266.666 266.667s119.391 266.668 266.666 266.668zM729.574 275.29c47.159 57.152 75.486 130.423 75.486 210.308 0 182.624-148.045 330.668-330.667 330.668s-330.666-148.044-330.666-330.668c0-182.622 148.044-330.667 330.666-330.667 79.689 0 152.794 28.19 209.886 75.14l141.385-140.988c12.51-12.484 32.772-12.467 45.257 0.043s12.463 32.768-0.043 45.252l-141.303 140.911zM474.394 624.266c-38.511 0-73.053-15.561-97.963-40.817-12.41-12.583-32.671-12.722-45.254-0.312s-12.722 32.671-0.312 45.254c36.529 37.037 87.32 59.876 143.529 59.876 41.502 0 80.503-12.649 112.469-33.961 14.707-9.804 18.679-29.671 8.875-44.376-9.801-14.705-29.67-18.678-44.373-8.875-21.794 14.528-48.499 23.212-76.971 23.212z" />
<glyph unicode="&#xe960;" glyph-name="send-right-01" d="M248.151 794.23c-41.161 22.172-83.913-26.684-56.475-64.54l157.897-217.848c27.386-37.781 27.403-88.883 0.043-126.686l-158.414-218.876c-27.403-37.858 15.345-86.677 56.493-64.512l571.095 307.627c30.835 16.61 30.835 60.843 0 77.453l-570.639 307.382zM139.857 692.131c-67.36 92.935 37.595 212.877 138.647 158.444l570.636-307.383c75.699-40.775 75.699-149.361 0-190.142l-571.092-307.627c-101.016-54.413-205.964 65.434-138.69 158.383l158.414 218.876c11.145 15.398 11.138 36.211-0.017 51.601l-157.897 217.849z" />
<glyph unicode="&#xe961;" glyph-name="send-right-02" d="M129.732 668.129c-69.089 99.84 40.389 226.020 148.975 171.704l573.137-286.689c86.455-43.248 86.455-166.627 0-209.874l-573.974-287.108c-108.511-54.276-217.97 71.71-149.065 171.575l105.783 153.31c10.037 14.545 29.966 18.202 44.512 8.166 14.546-10.039 18.202-29.969 8.165-44.514l-105.784-153.31c-31.321-45.393 18.434-102.66 67.757-77.986l573.972 287.104c39.3 19.657 39.3 75.742 0 95.398l-573.135 286.688c-49.358 24.689-99.12-32.666-67.716-78.047l105.735-152.798c10.057-14.532 6.428-34.467-8.105-44.524s-34.467-6.426-44.523 8.107l-105.736 152.797zM411.547 448.209c0 17.673 14.327 32 31.998 32h159.147c17.673 0 32-14.327 32-32 0-17.677-14.327-32-32-32h-159.147c-17.671 0-31.998 14.323-31.998 32z" />
</font>
</defs>
</svg>
